Bose Madchen 8 | Böse Mädchen 8 | Чертовки 8 (Multi Media Verlag (MMV)) [1997 г., All sex | Anal, DVDRip, Tina Banks , Mandy Mistery , Mona Lisa , Myriam , Lolita , Nikki Platts ]

 Статистика раздачи 
Размер: 1.56 ГБ   |  Зарегистрирован: 04 сен 2015, 17:03   |   .torrent скачан: 4 раз
Сидеров: 3  [ 0 байт/сек ]     Личеров: 4  [ 0 байт/сек ]  
  
Аватара пользователя
Раздал: 612.29 ГБ
Скачал: 67.64 ГБ
Ратио: 9.052
Сообщения: 354174
Зарегистрирован: 27 июл 2015, 20:38

Bose Madchen 8 | Böse Mädchen 8 | Чертовки 8 (Multi Media Verlag (MMV)) [1997 г., All sex | Anal, DVDRip, Tina Banks , Mandy Mistery , Mona Lisa , Myriam , Lolita , Nikki Platts ]

Сообщение MalonE » 25 окт 2013, 22:53

Bose Madchen 8 | Böse Mädchen 8 | Чертовки 8

Год производства: 1997 г.
Страна: Germany | Германия
Жанр: All sex | Anal
Продолжительность: 02:12:18
Язык: Немецкий

Режиссер: No | Нет
Студия: Multi Media Verlag (MMV)

В ролях:
Actresses
Lolita (as Biggi) [Anal Facial]
Myriam (as Daisy) [Facial]
Mona Lisa (as Diana) [Anal]
Tina Banks (as Edith) [Anal Facial]
Mandy Mistery (as Fanny)
Gaby Rochus (as Gabi) [Anal]
Nikki Platts (as Nikki)
NonSex Performers
Betty Hurst
Jeanny Bee
Melody Kord

Actors
Claudio Meloni
Leslie Taylor
Pascal White
Reinhardt
Rene Bar
Zenza Raggi
NonSex Performers
Alex Kater
Conny Dachs

Описание:
Scene Breakdowns
Scene 1. Mandy Mistery, Leslie Taylor
Scene 2. Mona Lisa, Zenza Raggi
Scene 3. Nikki Platts, Rene Bar
Scene 4. Gaby Rochus, Claudio Meloni
Scene 5. Lolita, Myriam, Pascal White, Reinhardt
Scene 6. Tina Banks, Zenza Raggi
Доп. информация от КМР-плеера
General
Format : MPEG-4
Format profile : Base Media / Version 2
Codec ID : mp42
File size : 1.56 GiB
Duration : 2h 12mn
Overall bit rate : 1 688 Kbps
Writing application : TMPGEnc Video Mastering Works 5 Version. 5.4.0.100
Video #2
ID : 2
Format : AVC
Format/Info : Advanced Video Codec
Codec ID : avc1
Codec ID/Info : Advanced Video Coding
Duration : 2h 12mn
Bit rate mode : Variable
Bit rate : 1 591 Kbps
Width : 672 pixels
Height : 504 pixels
Display aspect ratio : 4:3
Frame rate mode : Constant
Frame rate : 25.000 fps
Bits/(Pixel*Frame) : 0.188
Stream size : 1.47 GiB (94%)
Audio #1
ID : 1
Format : AAC
Format/Info : Advanced Audio Codec
Format version : Version 4
Format profile : LC
Format settings, SBR : No
Codec ID : 40
Duration : 2h 12mn
Bit rate mode : Variable
Bit rate : 93.4 Kbps
Maximum bit rate : 576 Kbps
Channel(s) : 2 channels
Channel positions : L R
Sampling rate : 48.0 KHz
Resolution : 16 bits
Stream size : 88.4 MiB (6%)
Качество видео: DVDRip
Формат видео: MP4
Видео кодек: H.264/AVC
Аудио кодек: AAC
Видео: MPEG4 Video (H264) 672x504 25.00fps 1 591 Kbps
Аудио: 48000Hz stereo 93Kbps
Скриншоты
 
   
Торрент:
Зарегистрирован [04 сен 2015, 17:03]
Скачать торрент
Скачать торрент
[ Размер 16.68 КБ / Просмотров 63 ]
Статус:
Проверен
 
.torrent скачан: 4 раз
Хэш: 909c556a541b1c5a58a6b93544f5486a360419a2
Размер: 1.56 ГБ (1 675 697 274 байт)
Become a Release Author / Стать Автором раздачи


Donate:

Bitcoin: bc1qr4dsl392pjpfzsvcd29lq5dqmxy0fvfallql3q | Ethereum: 0x890E0BD8F101914C256bFdbcBd53fd36AF5ac031


Вернуться в Фильмы без сюжета / All Sex & Amateur

Кто сейчас на конференции

Сейчас эту тему просматривают: нет зарегистрированных пользователей и гости: 1


Ресурс не предоставляет электронные версии произведений, а занимается лишь коллекционированием и каталогизацией ссылок, присылаемых и публикуемых на форуме нашими читателями. Если вы являетесь правообладателем какого-либо представленного материала и не желаете чтобы ссылка на него находилась в нашем каталоге, свяжитесь с нами и мы незамедлительно удалим её. Файлы для обмена на трекере предоставлены пользователями сайта, и администрация не несёт ответственности за их содержание. Просьба не заливать файлы, защищенные авторскими правами, а также файлы нелегального содержания!
cron