Lesbian PsychoDramas 12 / Лесбийские психодрамы 12 (Girlfriends Films) [2012 г., Lesbian, Girl On Girl, All Girl, DVDRip-AVC] (Monique Alexander, Natalie Heart, Laurie Vargas, Sophia Lomeli, Yurizan Beltran, Capri Anderson, Sophia Jade, Siri)

 Статистика раздачи 
Размер: 1.72 ГБ   |  Зарегистрирован: 05 сен 2015, 02:42   |   .torrent скачан: 2 раз
Сидеров: 3  [ 0 байт/сек ]     Личеров: 0  [ 0 байт/сек ]  
  
Аватара пользователя
Раздал: 159.1 ГБ
Скачал: 62.65 ГБ
Ратио: 2.539
Сообщения: 354180
Зарегистрирован: 27 июл 2015, 20:38

Lesbian PsychoDramas 12 / Лесбийские психодрамы 12 (Girlfriends Films) [2012 г., Lesbian, Girl On Girl, All Girl, DVDRip-AVC] (Monique Alexander, Natalie Heart, Laurie Vargas, Sophia Lomeli, Yurizan Beltran, Capri Anderson, Sophia Jade, Siri)

Сообщение MalonE » 10 мар 2013, 08:22

Lesbian PsychoDramas 12 / Лесбийские психодрамы 12
Год производства: 2012 г.
Страна: USA
Жанр: Lesbian, Girl On Girl, All Girl,
Продолжительность: 02:55:09
Студия: Girlfriends Films
Язык: Английский
В ролях: Monique Alexander, Natalie Heart, Laurie Vargas, Sophia Lomeli, Yurizan Beltran, Capri Anderson, Sophia Jade, Siri
Описание: Simply the most realistic sex in lesbian adult video!
Drama to the highest degree between hot lesbians!!
Доп. информация: http://www.adultdvdempire.com/1643518/lesbian-psych...porn-movies.html
Релиз группы: UPPERCUT
Качество видео: DVDRip-AVC
Формат видео: MP4
Видео кодек: H.264/AVC
Аудио кодек: AAC
Видео: 720x404 (1.78:1), 23.976 fps, ~1189 kbps avg @ crf 19, 0.171 bit/pixel
Аудио: 48 kHz, 2 ch, ~212 kbps
MediaInfo
Код:
Код: Выделить всё
Общее
Полное имя                               : Lesbian.Psychodramas.12.XXX.DVDRip.x264-UPPERCUT.mp4
Формат                                   : MPEG-4
Профиль формата                          : Base Media
Идентификатор кодека                     : isom
Размер файла                             : 1,72 Гбайт
Продолжительность                        : 2 ч. 55 м.
Режим общего битрейта                    : Переменный
Общий поток                              : 1406 Кбит/сек
Дата кодирования                         : UTC 2013-03-09 17:54:19
Дата пометки                             : UTC 2013-03-09 17:54:19
Видео
Идентификатор                            : 1
Формат                                   : AVC
Формат/Информация                        : Advanced Video Codec
Профиль формата                          : [email protected]
Параметр CABAC формата                   : Да
Параметр ReFrames формата                : 5 кадров
Идентификатор кодека                     : avc1
Идентификатор кодека/Информация          : Advanced Video Coding
Продолжительность                        : 2 ч. 55 м.
Битрейт                                  : 1189 Кбит/сек
Максимальный битрейт                     : 2954 Кбит/сек
Ширина                                   : 720 пикселей
Высота                                   : 404 пикселя
Соотношение сторон                       : 16:9
Режим частоты кадров                     : Постоянный
Частота кадров                           : 23,976 кадра/сек
Цветовое пространство                    : YUV
Субдискретизация насыщенности            : 4:2:0
Битовая глубина                          : 8 бит
Тип развёртки                            : Прогрессивная
Бит/(Пиксели*Кадры)                      : 0.171
Размер потока                            : 1,46 Гбайт (85%)
Библиотека кодирования                   : x264 core 129 r2245 bc13772
Настройки программы                      : cabac=1 / ref=5 / deblock=1:0:0 / analyse=0x3:0x113 / me=umh / subme=8 / psy=1 / psy_rd=1.00:0.00 / mixed_ref=1 / me_range=16 / chroma_me=1 / trellis=1 / 8x8dct=1 / cqm=0 / deadzone=21,11 / fast_pskip=0 / chroma_qp_offset=-2 / threads=6 / lookahead_threads=1 / sliced_threads=0 / nr=0 / decimate=1 / interlaced=0 / bluray_compat=0 / constrained_intra=0 / bframes=3 / b_pyramid=2 / b_adapt=2 / b_bias=0 / direct=3 / weightb=1 / open_gop=0 / weightp=2 / keyint=240 / keyint_min=23 / scenecut=40 / intra_refresh=0 / rc_lookahead=50 / rc=crf / mbtree=1 / crf=19.0 / qcomp=0.60 / qpmin=0 / qpmax=69 / qpstep=4 / ip_ratio=1.40 / aq=1:1.00
Дата кодирования                         : UTC 2013-03-09 17:54:19
Дата пометки                             : UTC 2013-03-09 17:54:50
Аудио
Идентификатор                            : 2
Формат                                   : AAC
Формат/Информация                        : Advanced Audio Codec
Профиль формата                          : LC
Идентификатор кодека                     : 40
Продолжительность                        : 2 ч. 55 м.
Вид битрейта                             : Переменный
Битрейт                                  : 212 Кбит/сек
Максимальный битрейт                     : 246 Кбит/сек
Каналы                                   : 2 канала
Расположение каналов                     : Front: L R
Частота                                  : 48,0 КГц
Метод сжатия                             : С потерями
Размер потока                            : 266 Мбайт (15%)
Дата кодирования                         : UTC 2013-03-09 17:54:48
Дата пометки                             : UTC 2013-03-09 17:54:50

Скринлист
 
   
Торрент:
Зарегистрирован [05 сен 2015, 02:42]
Скачать торрент Магнет ссылка
Скачать торрент
[ Размер 17.61 КБ / Просмотров 13 ]
Статус:
Проверен
 
.torrent скачан: 2 раз
Хэш: 37f8fa487869c7204c29ffb820ed1ea0c903f341
Размер: 1.72 ГБ (1 847 037 485 байт)
Стать Автором раздачи
 

  • Похожие торренты
    Ответы
    Просмотры
    Последнее сообщение

Вернуться в Лесбо-фильмы / All Girl & Solo

Кто сейчас на конференции

Сейчас эту тему просматривают: нет зарегистрированных пользователей и гости: 1


Ресурс не предоставляет электронные версии произведений, а занимается лишь коллекционированием и каталогизацией ссылок, присылаемых и публикуемых на форуме нашими читателями. Если вы являетесь правообладателем какого-либо представленного материала и не желаете чтобы ссылка на него находилась в нашем каталоге, свяжитесь с нами и мы незамедлительно удалим её. Файлы для обмена на трекере предоставлены пользователями сайта, и администрация не несёт ответственности за их содержание. Просьба не заливать файлы, защищенные авторскими правами, а также файлы нелегального содержания!
cron