Geil Mit 40. Vol.1 / 40 en geil: ervaren vrouwen / Geil mit 40 Teil 1 / 45 - Баба Ягодка Опять. 1ч. (Jean-Yves Le Castel), Multi Media Verlag ) [2000 г., All Sex, Mature, Anal Sex, DVDRip] [rus] [с переводом на русский язык] (с русским переводом)

 Статистика раздачи 
Размер: 1.76 ГБ   |  Зарегистрирован: 05 сен 2015, 01:59   |   .torrent скачан: 3 раз
Сидеров: 3  [ 0 байт/сек ]     Личеров: 0  [ 0 байт/сек ]  
  
Аватара пользователя
Раздал: 159.1 ГБ
Скачал: 62.65 ГБ
Ратио: 2.539
Сообщения: 353589
Зарегистрирован: 27 июл 2015, 20:38

Geil Mit 40. Vol.1 / 40 en geil: ervaren vrouwen / Geil mit 40 Teil 1 / 45 - Баба Ягодка Опять. 1ч. (Jean-Yves Le Castel), Multi Media Verlag ) [2000 г., All Sex, Mature, Anal Sex, DVDRip] [rus] [с переводом на русский язык] (с русским переводом)

Сообщение MalonE » 12 мар 2013, 14:33


#77 Оригинальное название: Geil Mit 40. Vol.1
Альтернативные названия:
40 en geil: ervaren vrouwen
(Dutch version, Fun Video)
, Geil mit 40 Teil 1
Год выхода: 2000
Страна: Германия
Жанр: All Sex, Mature, Anal Sex
Продолжительность: 01:27:11
Режиссеры: Жан ив Лекастель (Jean-Yves Le Castel)
Студия:
В ролях: Adelheid, Hildegard, Jennifer Toth (as Liesbeth), Jessika Forister (as Regina), Roswitha, Waltraud, Jean-Pierre Armand, Joachim Kessef, Yves Baillat...-Перевод: Любительский (одноголосый, SP Company)
Субтитры: нет-Описание: It all depends on preferences. Who and 25 already old, and who in the 50 young woman!
Sweet dreams ...Pyatidesyatidvuhletnyaya Valtruda sitting alone in the kitchen, drinking coffee and crossword puzzles, or rather, trying to solve, because her thoughts about something else ... Lisbett in good shape because he was doing in the gym, but sometimes it is in their hands instead of two dumbbells krepenkih member ...A Rozvita - girl, so she too is in the hands of a member, but instead of cucumber ... Adele - a very subtle nature. She likes to visit antique shops and various exotic touch there little things, and she thinks about the huge Negro with rearing a phallus on his snow-white sheet ... Dreams ... Dreams ...
-Перевод: Все зависит от пристрастий. Кому и в 25 уже старуха, а кому в 50 молодуха!
Сладкие мечты... Пятидесятидвухлетняя Вальтруда сидит одна на кухне, пьет кофе и разгадывает кроссворд, вернее, пытается разгадывать, потому что мысли ее совсем о другом... Лисбетт в хорошей форме, потому что занимается в тренажерном зале, но иногда она представляет в своих руках вместо гантелей два крепеньких члена... А Розвита - продавщица, поэтому она тоже представляет в своих руках член, но только вместо огурца... Адель - очень утонченная натура. Она любит посещать антикварные лавки и трогать там различные экзотические вещицы, а думает она об огромном негре со вздыбленным фаллосом на своей белоснежной простыне... Мечты... Мечты...
-Качество: DVDRip
Формат: AVI
Видео кодек: XviD
Видео: XviD MPEG-4, 720x544 (1.33:1), 25 fps, 2687 kbps avg, 0.274 bit/pixel
Аудио кодек: MP2
Звук: MPEG Layer 2, 2 ch, 48 kHz, 2 ch, 192.00 kbps avg
Дополнительно:
Скринлист:
Скриншоты:
Тех.данные:
....Geil Mit 40. Vol.1.avi
General
Complete name : Geil Mit 40. Vol.1.avi
Format : AVI
Format/Info : Audio Video Interleave
File size : 1.76 GiB
Duration : 1h 27mn
Overall bit rate : 2 887 Kbps
Writing application : VirtualDubMod 1.5.4.1 (build 2178/release)
Writing library : VirtualDubMod build 2178/release
Video #0
ID : 0
Format : MPEG-4 Visual
Format profile : AdvancedSimple@L5
Format settings, BVOP : Yes
Format settings, QPel : No
Format settings, GMC : No warppoints
Format settings, Matrix : Custom
Codec ID : XVID
Codec ID/Hint : XviD
Duration : 1h 27mn
Bit rate : 2 687 Kbps
Width : 720 pixels
Height : 544 pixels
Display aspect ratio : 4:3
Frame rate : 25.000 fps
Resolution : 24 bits
Colorimetry : 4:2:0
Scan type : Progressive
Bits/(Pixel*Frame) : 0.274
Stream size : 1.64 GiB (93%)
Writing library : XviD 1.2.1 (UTC 2008-12-04)
Audio #1
ID : 1
Format : MPEG Audio
Format version : Version 1
Format profile : Layer 2
Codec ID : 50
Codec ID/Hint : MP1
Duration : 1h 27mn
Bit rate mode : Constant
Bit rate : 192 Kbps
Channel(s) : 2 channels
Sampling rate : 48.0 KHz
Resolution : 16 bits
Stream size : 120 MiB (7%)
Alignment : Aligned on interleaves
Interleave, duration : 80 ms (2.00 video frames)
Interleave, preload duration : 504 ms
Language : Russian
 
   
Торрент:
Зарегистрирован [05 сен 2015, 01:59]
Скачать торрент Магнет ссылка
Скачать торрент
[ Размер 17.97 КБ / Просмотров 8 ]
Статус:
Проверен
 
.torrent скачан: 3 раз
Хэш: 81200ea9f274fd99b823107921c11871f8988d66
Размер: 1.76 ГБ (1 887 477 760 байт)
 

Вернуться в Гонзо-фильмы / Gonzo

Кто сейчас на конференции

Сейчас эту тему просматривают: нет зарегистрированных пользователей и гости: 1


Ресурс не предоставляет электронные версии произведений, а занимается лишь коллекционированием и каталогизацией ссылок, присылаемых и публикуемых на форуме нашими читателями. Если вы являетесь правообладателем какого-либо представленного материала и не желаете чтобы ссылка на него находилась в нашем каталоге, свяжитесь с нами и мы незамедлительно удалим её. Файлы для обмена на трекере предоставлены пользователями сайта, и администрация не несёт ответственности за их содержание. Просьба не заливать файлы, защищенные авторскими правами, а также файлы нелегального содержания!
cron