Luxurious 2 / Роскошные 2 (Andrew Youngman, 21 Sextury) [2007 г., Gonzo, DVDRip] Christine Diamond, Cleopatra Caszo, Jennifer Love, Nesty, Olimpia, Hon, Regina Ice [rus](с русским переводом)

 Статистика раздачи 
Размер: 1.51 ГБ   |  Зарегистрирован: 05 сен 2015, 01:59   |   .torrent скачан: 1 раз
Сидеров: 3  [ 0 байт/сек ]     Личеров: 1  [ 0 байт/сек ]  
  
В сети
Аватара пользователя
Раздал: 147.13 ГБ
Скачал: 46.19 ГБ
Ратио: 3.185
Сообщения: 349588
Зарегистрирован: 27 июл 2015, 20:38

Luxurious 2 / Роскошные 2 (Andrew Youngman, 21 Sextury) [2007 г., Gonzo, DVDRip] Christine Diamond, Cleopatra Caszo, Jennifer Love, Nesty, Olimpia, Hon, Regina Ice [rus](с русским переводом)

Сообщение MalonE » 12 мар 2013, 14:50


#77Оригинальное название: Luxurious 2
Год выхода: 2007
Страна: Германия
Жанр: Анальный Секс, Гонзо, Классический Секс
Продолжительность: 02:52:31
Режиссер: Эндрю Янгмен (Andrew Youngman)
Студия:
В ролях: Реджина Айс /Regina Ice/, Kleopatra Cazso, Кристина Даймонд /Christine Diamond/, Синди Доллар /Cindy Dollar/, Флорина Роуз /Florina Rose/, Aletta, Olimpia, Courtney-Перевод: Любительский (двухголосый, ПорноКино.ру)
Субтитры: нет
Дополнительно:
Luxurious 4 / Роскошные 4 (Andrew Youngman, 21 Sextury) [2007 г., Vignettes, All Sex, DVDRip] [rus]
Luxurious 5 / Роскошные 5 (Andrew Youngman, 21 Sextury) [2007 г., Vignettes, All Sex, DVDRip] [rus]-Описание: Luxurious = displaying luxury and furnishing gratification to the senses. These women are going to bring the definition into your reality. Every last one of them is Luxurious from head to toe and they will suck your dick dry if you just give them a moment, then they will ride you into the Luxurious sunset!-Описание
Их тела - предмет вожделения миллионов, но овладеть ими под силу лишь единицам. Потому что их сексуальные харизмы и эротические навыки - бесценны. Вас ждут незабываемые три часа в обществе распалённых кисок и неистовых членов на фоне самых дорогих апартаментов Европы. А роскошные задницы и красивейшие женские тела будут нещадно и обильно сбрызнуты вулканической спермой самых неутомимых самцов на свете. Кроме всего прочего, вашим проводником в мире гламурной эротики станет интернациональная команда мегазвёзд "горячего кино": Реджина Айс, Кристина Даймонд, Сидни Доллар, Флорина Руз и снявший все это роскошное сексуальное бесстыдство режиссер Эндрю Янгмен. А уж они-то о сексе, красоте и эстетике знают абсолютно всё...

Формат: AVI
Видео кодек: XviD
Видео: XviD 64, 720x544 (4:3), 25 fps, 1047 kbps avg, 0.107 bit/pixel
Аудио кодек: AC3
Звук: AC3 Dolby Digital, 48 kHz, 2/0 (L,R) ch, 192.00 kbps avg
Скринлист:
Скриншоты:


Actresses:






Тех.данные:
...Luxurious 2.avi
General
Complete name : Luxurious 2.avi
Format : AVI
Format/Info : Audio Video Interleave
File size : 1.51 GiB
Duration : 2h 52mn
Overall bit rate : 1 249 Kbps
Writing application : VirtualDubMod 1.5.4.1 (build 2178/release)
Writing library : Boilsoft AVI tool build 1/release
Video #0
ID : 0
Format : MPEG-4 Visual
Format profile : Advanced Simple@L5
Format settings, BVOP : 1
Format settings, QPel : No
Format settings, GMC : No warppoints
Format settings, Matrix : Custom
Codec ID : XVID
Codec ID/Hint : XviD
Duration : 2h 52mn
Bit rate : 1 047 Kbps
Width : 720 pixels
Height : 544 pixels
Display aspect ratio : 4:3
Frame rate : 25.000 fps
Color space : YUV
Chroma subsampling : 4:2:0
Bit depth : 8 bits
Scan type : Progressive
Compression mode : Lossy
Bits/(Pixel*Frame) : 0.107
Stream size : 1.26 GiB (84%)
Writing library : XviD 64
Audio #1
ID : 1
Format : AC-3
Format/Info : Audio Coding 3
Mode extension : CM (complete main)
Codec ID : 2000
Duration : 2h 52mn
Bit rate mode : Constant
Bit rate : 192 Kbps
Channel(s) : 2 channels
Channel positions : Front: L R
Sampling rate : 48.0 KHz
Bit depth : 16 bits
Compression mode : Lossy
Delay relative to video : 16ms
Stream size : 237 MiB (15%)
Alignment : Split accross interleaves
Interleave, duration : 40 ms (1.00 video frame)
Interleave, preload duration : 500 ms
 
   
Торрент:
Зарегистрирован [05 сен 2015, 01:59]
Скачать торрент Магнет ссылка
Скачать торрент
[ Размер 15.53 КБ / Просмотров 7 ]
Статус:
Проверен
 
.torrent скачан: 1 раз
Хэш: 47dd07e5435d9044a3190a16b71a0b289f3bb2fa
Размер: 1.51 ГБ (1 616 070 096 байт)
 

Вернуться в Гонзо-фильмы / Gonzo

Кто сейчас на конференции

Сейчас эту тему просматривают: нет зарегистрированных пользователей и гости: 1


Ресурс не предоставляет электронные версии произведений, а занимается лишь коллекционированием и каталогизацией ссылок, присылаемых и публикуемых на форуме нашими читателями. Если вы являетесь правообладателем какого-либо представленного материала и не желаете чтобы ссылка на него находилась в нашем каталоге, свяжитесь с нами и мы незамедлительно удалим её. Файлы для обмена на трекере предоставлены пользователями сайта, и администрация не несёт ответственности за их содержание. Просьба не заливать файлы, защищенные авторскими правами, а также файлы нелегального содержания!
cron