Teenlicious / Подростковое очарование (Robby D. / Digital Playground ) [2009, Gonzo , 18+ Teens, BDRip-AVC]

 Статистика раздачи 
Размер: 2.11 ГБ   |  Зарегистрирован: 05 сен 2015, 01:58   |   .torrent скачан: 0 раз
Сидеров: 3  [ 0 байт/сек ]     Личеров: 1  [ 0 байт/сек ]  
  
Аватара пользователя
Раздал: 147.13 ГБ
Скачал: 46.19 ГБ
Ратио: 3.185
Сообщения: 349588
Зарегистрирован: 27 июл 2015, 20:38

Teenlicious / Подростковое очарование (Robby D. / Digital Playground ) [2009, Gonzo , 18+ Teens, BDRip-AVC]

Сообщение MalonE » 12 мар 2013, 15:22

Teenlicious / Подростковое очарование--
Альтернативный постер
-Год производства: 2009 г. Страна: USA Жанр: Gonzo , 18+ Teens Продолжительность: 02:26:42
Субтитры: Нет Язык: Английский-
Режиссер: Robby D. Студия: Digital Playground-В ролях:
Danny Mountain, Gabriella Fox, James Deen, Riley Steele, Rio Valentine, Scott Nails, Shawna Lenee, Toni Ribas, Zeina Heart-Описание: | IMDB |
The teens in this series taunt, tease and get exactly what they asked for... Their eager mouths are hungry and their tight peaches are ready for exploring.-
Качество видео: BDRip-AVC Формат видео: MKV
Видео кодек: AVC Аудио кодек: AC3-Видео: AVC | 16:9 | 1024x576 | 29.970 fps | 1 875 Kbps
Аудио: AC3 | 48.0 KHz | 2 ch | 192 Kbps -
Media Info
Код:
Код: Выделить всё
General
Complete name                    : D:\Reliz.by.Pornolab.net\Teenlicious.BDRip-AVC.Milashka..mkv
Format                           : Matroska
File size                        : 2.11 GiB
Duration                         : 2h 26mn
Overall bit rate                 : 2 069 Kbps
Encoded date                     : UTC 2010-10-22 08:17:34
Writing application              : mkvmerge v3.3.0 ('Language') built on Mar 24 2010 14:59:24
Writing library                  : libebml v0.8.0 + libmatroska v0.9.0
Video
ID                               : 1
Format                           : AVC
Format/Info                      : Advanced Video Codec
Format profile                   : High@L3.1
Format settings, CABAC           : Yes
Format settings, ReFrames        : 4 frames
Muxing mode                      : Container profile=Unknown@3.1
Codec ID                         : V_MPEG4/ISO/AVC
Duration                         : 2h 25mn
Bit rate                         : 1 836 Kbps
Nominal bit rate                 : 1 875 Kbps
Width                            : 1 024 pixels
Height                           : 576 pixels
Display aspect ratio             : 16:9
Frame rate                       : 29.970 fps
Resolution                       : 8 bits
Colorimetry                      : 4:2:0
Scan type                        : Progressive
Bits/(Pixel*Frame)               : 0.104
Stream size                      : 1.87 GiB (89%)
Writing library                  : x264 core 92 r1510 33d382a
Encoding settings                : cabac=1 / ref=4 / deblock=1:0:0 / analyse=0x3:0x113 / me=umh / subme=7 / psy=1 / psy_rd=1.00:0.00 / mixed_ref=1 / me_range=32 / chroma_me=1 / trellis=0 / 8x8dct=1 / cqm=0 / deadzone=21,11 / fast_pskip=0 / chroma_qp_offset=-2 / threads=3 / sliced_threads=0 / nr=0 / decimate=1 / interlaced=0 / constrained_intra=0 / bframes=2 / b_pyramid=2 / b_adapt=0 / b_bias=0 / direct=3 / wpredb=1 / wpredp=0 / keyint=250 / keyint_min=25 / scenecut=40 / intra_refresh=0 / rc_lookahead=60 / rc=2pass / mbtree=1 / bitrate=1875 / ratetol=1.0 / qcomp=0.60 / qpmin=10 / qpmax=51 / qpstep=4 / cplxblur=20.0 / qblur=0.5 / vbv_maxrate=14000 / vbv_bufsize=14000 / ip_ratio=1.40 / aq=1:1.00 / nal_hrd=none
Audio
ID                               : 2
Format                           : AC-3
Format/Info                      : Audio Coding 3
Codec ID                         : A_AC3
Duration                         : 2h 26mn
Bit rate mode                    : Constant
Bit rate                         : 192 Kbps
Channel(s)                       : 2 channels
Channel positions                : L R
Sampling rate                    : 48.0 KHz
Stream size                      : 201 MiB (9%)

Скриншоты
Альтернатива
Релиз группы:
 
   
Торрент:
Зарегистрирован [05 сен 2015, 01:58]
Скачать торрент Магнет ссылка
Скачать торрент
[ Размер 10.95 КБ / Просмотров 0 ]
Статус:
Проверен
 
.torrent скачан: 0 раз
Хэш: 9b1c6c944a05285300e2c59924909ded447271ea
Размер: 2.11 ГБ (2 266 675 314 байт)
 

Вернуться в Гонзо-фильмы / Gonzo

Кто сейчас на конференции

Сейчас эту тему просматривают: нет зарегистрированных пользователей и гости: 1


Ресурс не предоставляет электронные версии произведений, а занимается лишь коллекционированием и каталогизацией ссылок, присылаемых и публикуемых на форуме нашими читателями. Если вы являетесь правообладателем какого-либо представленного материала и не желаете чтобы ссылка на него находилась в нашем каталоге, свяжитесь с нами и мы незамедлительно удалим её. Файлы для обмена на трекере предоставлены пользователями сайта, и администрация не несёт ответственности за их содержание. Просьба не заливать файлы, защищенные авторскими правами, а также файлы нелегального содержания!
cron