PlayboyTV - Naughty Amateur Home Videos / Плэйбой ТВ - Домашнее видео парочек (Varius couples) [2009-12 г., Serial/Home video, HDRip][UPDATE 01.12.12]

 Статистика раздачи 
Размер: 9.84 ГБ   |  Зарегистрирован: 05 сен 2015, 01:58   |   .torrent скачан: 1 раз
Сидеров: 3  [ 0 байт/сек ]     Личеров: 0  [ 0 байт/сек ]  
  
Аватара пользователя
Раздал: 147.13 ГБ
Скачал: 46.19 ГБ
Ратио: 3.185
Сообщения: 349588
Зарегистрирован: 27 июл 2015, 20:38

PlayboyTV - Naughty Amateur Home Videos / Плэйбой ТВ - Домашнее видео парочек (Varius couples) [2009-12 г., Serial/Home video, HDRip][UPDATE 01.12.12]

Сообщение MalonE » 12 мар 2013, 15:41

-PlayboyTV - Naughty Amateur Home Videos / Плэйбой ТВ - Домашнее видео парочек-Год выпуска: 2009- 2012
Жанр: Serial/Home video
Продолжительность: 26min
Режиссер: Varius couples
В ролях: Varius couples
Описание:
Вот уже не первый год различные парочки засылают на платный кабельный канал свое видео, а PLAYBOY TV делает из них шоу/сериал который идет на экранах вот уже 16 лет!
Качество: HDTVRip
Формат: AVI
Видео кодек: XviD
Аудио кодек: MP3
Видео: Xvid 1280x720 24.00fps
Аудио: MPEG Audio Layer 3 44100Hz stereo 128kbps
Отчёт DVDInfo / MediaInfo / BDInfo на примере первой серии шестнадцатого сезона
General
Format : AVI
Format/Info : Audio Video Interleave
File size : 671 MiB
Duration : 26mn 3s
Overall bit rate : 3 602 Kbps
Writing application : MEncoder SVN-r30881(20100311-gcc4.3.3)
Writing library : MPlayer
Video
ID : 0
Format : MPEG-4 Visual
Format profile : Advanced Simple@L5
Format settings, BVOP : 2
Format settings, QPel : No
Format settings, GMC : No warppoints
Format settings, Matrix : Default (H.263)
Codec ID : XVID
Codec ID/Hint : XviD
Duration : 26mn 3s
Bit rate : 3 462 Kbps
Width : 1 248 pixels
Height : 700 pixels
Display aspect ratio : 16:9
Frame rate : 24.000 fps
Color space : YUV
Chroma subsampling : 4:2:0
Bit depth : 8 bits
Scan type : Progressive
Compression mode : Lossy
Bits/(Pixel*Frame) : 0.165
Stream size : 645 MiB (96%)
Writing library : XviD 1.2.1 (UTC 2008-12-04)
Audio
ID : 1
Format : MPEG Audio
Format version : Version 1
Format profile : Layer 3
Mode : Joint stereo
Mode extension : MS Stereo
Codec ID : 55
Codec ID/Hint : MP3
Duration : 26mn 3s
Bit rate mode : Constant
Bit rate : 128 Kbps
Channel(s) : 2 channels
Sampling rate : 44.1 KHz
Compression mode : Lossy
Delay relative to video : 42ms
Stream size : 23.9 MiB (4%)
Alignment : Aligned on interleaves
Interleave, duration : 26 ms (0.63 video frame)
Interleave, preload duration : 522 ms
Writing library : LAME3.98
Скрины
-
Скринлисты
S13 EP 13
S14 EP 12
S14 EP 14
S16 EP 01
S16 EP 02
S16 EP 03
S16 EP 04
S16 EP 05
S16 EP 06
S16 EP 07
S17 EP 01
S17 EP 02
S17 EP 05
S17 EP 06
S17 EP 07
S17 EP 08
S17 EP 09
S17 EP 10
S17 EP 11
S17 EP 12
S17 EP 13
-Добавлены 2 эпизода из 17 сезона! (12 и 13)-
 
   
Торрент:
Зарегистрирован [05 сен 2015, 01:58]
Скачать торрент Магнет ссылка
Скачать торрент
[ Размер 29.48 КБ / Просмотров 6 ]
Статус:
Проверен
 
.torrent скачан: 1 раз
Хэш: 72aa1f257e2c89b93c08774eae91ecd86c876189
Размер: 9.84 ГБ (10 563 809 446 байт)
 

Вернуться в Гонзо-фильмы / Gonzo

Кто сейчас на конференции

Сейчас эту тему просматривают: нет зарегистрированных пользователей и гости: 1


Ресурс не предоставляет электронные версии произведений, а занимается лишь коллекционированием и каталогизацией ссылок, присылаемых и публикуемых на форуме нашими читателями. Если вы являетесь правообладателем какого-либо представленного материала и не желаете чтобы ссылка на него находилась в нашем каталоге, свяжитесь с нами и мы незамедлительно удалим её. Файлы для обмена на трекере предоставлены пользователями сайта, и администрация не несёт ответственности за их содержание. Просьба не заливать файлы, защищенные авторскими правами, а также файлы нелегального содержания!
cron