The Babysitter / Нянька (Jim Powers, Notorious) [2000 г., Anal, DP, Teens 18+, SATRip , Allysin Chaynes , Chloey Adams , Randi Storm ]

 Статистика раздачи 
Размер: 1.42 ГБ   |  Зарегистрирован: 05 сен 2015, 01:57   |   .torrent скачан: 1 раз
Сидеров: 3  [ 0 байт/сек ]     Личеров: 0  [ 0 байт/сек ]  
  
Аватара пользователя
Раздал: 147.13 ГБ
Скачал: 46.19 ГБ
Ратио: 3.185
Сообщения: 349588
Зарегистрирован: 27 июл 2015, 20:38

The Babysitter / Нянька (Jim Powers, Notorious) [2000 г., Anal, DP, Teens 18+, SATRip , Allysin Chaynes , Chloey Adams , Randi Storm ]

Сообщение MalonE » 12 мар 2013, 16:10

The Babysitter - Нянька
#77Год производства: 2000 г.
Страна: USA | США
Жанр: Anal, DP, Teens 18+
Язык: Английский
Режиссер: Jim Powers
Студия: Notorious
В ролях:
Actresses
Allysin Chaynes [Facial]
Chloey Adams [Anal Facial DP Bald]
Randi Storm [Bald]
Shayla Heart [Anal Facial DP DPP]
Vivi Anne [Anal Facial]
Actors
Chris Charming
Dave Hardman
Erik Everhard
J.J. Michaels
Rod Fontana
Tony Martino
Описание: She needs a little extra money. She wants a lot of cock. ...and you hired her! They love to get their ass fucked! Bring a friend and have a D.P.! Mr. & Mrs. Smith hired a brand new Babysitter... look what happens while they're gone! Cum on the face and getting your ass plowed... all in a days work for the babysitter.
Scene Breakdowns
Scene 1. Chloey Adams, Chris Charming, Erik Everhard
Scene 2. Allysin Chaynes, Vivi Anne, J.J. Michaels
Scene 3. Allysin Chaynes, Randi Storm, Tony Martino
Scene 4. Shayla Heart, Dave Hardman, Rod Fontana
Доп. информация от КМР-плеера
General
Format : Windows Media
File size : 1.42 GiB
Duration : 1h 21mn
Overall bit rate mode : Constant
Overall bit rate : 2 501 Kbps
Maximum Overall bit rate : 2 510 Kbps
Encoded date : UTC 2013-03-09 12:41:07.968
Video #2
ID : 2
Format : WMV2
Codec ID : WMV2
Codec ID/Info : Windows Media Video 8
Description of the codec : Windows Media Video V8
Duration : 1h 21mn
Bit rate mode : Constant
Bit rate : 2 360 Kbps
Width : 720 pixels
Height : 480 pixels
Display aspect ratio : 1.500
Frame rate : 29.970 fps
Standard : NTSC
Resolution : 24 bits
Bits/(Pixel*Frame) : 0.228
Stream size : 1.34 GiB (94%)
Language : English (US)
Audio #1
ID : 1
Format : WMA2
Codec ID : 161
Codec ID/Info : Windows Media Audio 2
Description of the codec : Windows Media Audio 9.1 - 128 kbps, 48 kHz, stereo 1-pass CBR
Duration : 1h 21mn
Bit rate mode : Constant
Bit rate : 128 Kbps
Channel(s) : 2 channels
Sampling rate : 48.0 KHz
Resolution : 16 bits
Stream size : 74.7 MiB (5%)
Language : English (US)
Качество видео: SATRip
Формат видео: MPEG
Видео кодек: Windows Media
Аудио кодек: WMA
Видео: WMV 2, 720x480, 30fps, 2360 Kbps
Аудио: 48.0 KHz, 2 ch ,128 Kbps
Скриншоты
Дополнительный коврик и скан
 
   
Торрент:
Зарегистрирован [05 сен 2015, 01:57]
Скачать торрент Магнет ссылка
Скачать торрент
[ Размер 14.68 КБ / Просмотров 7 ]
Статус:
Проверен
 
.torrent скачан: 1 раз
Хэш: 63eed26a5f4b036b8d88526fcf6aa86f7da25c30
Размер: 1.42 ГБ (1 529 354 797 байт)
 

Вернуться в Гонзо-фильмы / Gonzo

Кто сейчас на конференции

Сейчас эту тему просматривают: нет зарегистрированных пользователей и гости: 1


Ресурс не предоставляет электронные версии произведений, а занимается лишь коллекционированием и каталогизацией ссылок, присылаемых и публикуемых на форуме нашими читателями. Если вы являетесь правообладателем какого-либо представленного материала и не желаете чтобы ссылка на него находилась в нашем каталоге, свяжитесь с нами и мы незамедлительно удалим её. Файлы для обмена на трекере предоставлены пользователями сайта, и администрация не несёт ответственности за их содержание. Просьба не заливать файлы, защищенные авторскими правами, а также файлы нелегального содержания!
cron