Newswomen 2 / Журналистки 2 (Girlfriends Films) [2013 г., Girl-Girl, All Girl, Lesbian, DVDRip-AVC] (Aryana Augustine, Randy Moore, Bree Daniels, Angela Sommers, India Summer, Raylene, Bree Daniels, Prinzzess)

 Статистика раздачи 
Размер: 1.69 ГБ   |  Зарегистрирован: 05 сен 2015, 01:50   |   .torrent скачан: 1 раз
Сидеров: 3  [ 0 байт/сек ]     Личеров: 3  [ 0 байт/сек ]  
  
В сети
Аватара пользователя
Раздал: 159.1 ГБ
Скачал: 62.65 ГБ
Ратио: 2.539
Сообщения: 354180
Зарегистрирован: 27 июл 2015, 20:38

Newswomen 2 / Журналистки 2 (Girlfriends Films) [2013 г., Girl-Girl, All Girl, Lesbian, DVDRip-AVC] (Aryana Augustine, Randy Moore, Bree Daniels, Angela Sommers, India Summer, Raylene, Bree Daniels, Prinzzess)

Сообщение MalonE » 12 мар 2013, 21:18

Newswomen 2 / Журналистки 2-Год производства: 2013 г.
Страна: USA
Жанр: Girl-Girl, All Girl, Lesbian
Продолжительность: 03:08:20
Студия: Girlfriends Films
Язык: Английский
В ролях: Aryana Augustine, Randy Moore, Bree Daniels, Angela Sommers, India Summer, Raylene, Bree Daniels, Prinzzess
Описание: These hot lesbian newswomen are sleeping their way to the top!
Доп. информация: http://www.adultdvdempire.com/1643520/newswomen-2-porn-movies.html
Релиз группы: UPPERCUT
Качество видео: DVDRip-AVC
Формат видео: MP4
Видео кодек: H.264/AVC
Аудио кодек: AAC
Видео: 720x404 (1.78:1), 29.970 fps, ~1104 kbps avg @ crf 19, 0.127 bit/pixel
Аудио: 48 kHz, 2 ch, ~173 kbps
MediaInfo
Код:
Код: Выделить всё
Общее
Полное имя                               : Newswomen.2.XXX.DVDRip.x264-UPPERCUT.mp4
Формат                                   : MPEG-4
Профиль формата                          : Base Media
Идентификатор кодека                     : isom
Размер файла                             : 1,69 Гбайт
Продолжительность                        : 3 ч. 8 м.
Режим общего битрейта                    : Переменный
Общий поток                              : 1282 Кбит/сек
Дата кодирования                         : UTC 2013-03-12 01:30:36
Дата пометки                             : UTC 2013-03-12 01:30:36
Видео
Идентификатор                            : 1
Формат                                   : AVC
Формат/Информация                        : Advanced Video Codec
Профиль формата                          : [email protected]
Параметр CABAC формата                   : Да
Параметр ReFrames формата                : 5 кадров
Идентификатор кодека                     : avc1
Идентификатор кодека/Информация          : Advanced Video Coding
Продолжительность                        : 3 ч. 8 м.
Битрейт                                  : 1104 Кбит/сек
Максимальный битрейт                     : 5413 Кбит/сек
Ширина                                   : 720 пикселей
Высота                                   : 404 пикселя
Соотношение сторон                       : 16:9
Режим частоты кадров                     : Постоянный
Частота кадров                           : 29,970 кадров/сек
Цветовое пространство                    : YUV
Субдискретизация насыщенности            : 4:2:0
Битовая глубина                          : 8 бит
Тип развёртки                            : Прогрессивная
Бит/(Пиксели*Кадры)                      : 0.127
Размер потока                            : 1,45 Гбайт (86%)
Библиотека кодирования                   : x264 core 129 r2245 bc13772
Настройки программы                      : cabac=1 / ref=5 / deblock=1:0:0 / analyse=0x3:0x113 / me=umh / subme=8 / psy=1 / psy_rd=1.00:0.00 / mixed_ref=1 / me_range=16 / chroma_me=1 / trellis=1 / 8x8dct=1 / cqm=0 / deadzone=21,11 / fast_pskip=0 / chroma_qp_offset=-2 / threads=6 / lookahead_threads=1 / sliced_threads=0 / nr=0 / decimate=1 / interlaced=0 / bluray_compat=0 / constrained_intra=0 / bframes=3 / b_pyramid=2 / b_adapt=2 / b_bias=0 / direct=3 / weightb=1 / open_gop=0 / weightp=2 / keyint=300 / keyint_min=29 / scenecut=40 / intra_refresh=0 / rc_lookahead=50 / rc=crf / mbtree=1 / crf=19.0 / qcomp=0.60 / qpmin=0 / qpmax=69 / qpstep=4 / ip_ratio=1.40 / aq=1:1.00
Дата кодирования                         : UTC 2013-03-12 01:30:36
Дата пометки                             : UTC 2013-03-12 01:31:19
Аудио
Идентификатор                            : 2
Формат                                   : AAC
Формат/Информация                        : Advanced Audio Codec
Профиль формата                          : LC
Идентификатор кодека                     : 40
Продолжительность                        : 3 ч. 8 м.
Вид битрейта                             : Переменный
Битрейт                                  : 173 Кбит/сек
Максимальный битрейт                     : 236 Кбит/сек
Каналы                                   : 2 канала
Расположение каналов                     : Front: L R
Частота                                  : 48,0 КГц
Метод сжатия                             : С потерями
Размер потока                            : 233 Мбайт (14%)
Дата кодирования                         : UTC 2013-03-12 01:30:56
Дата пометки                             : UTC 2013-03-12 01:31:19

Скринлист
Скриншоты







 
   
Торрент:
Зарегистрирован [05 сен 2015, 01:50]
Скачать торрент Магнет ссылка
Скачать торрент
[ Размер 17.26 КБ / Просмотров 14 ]
Статус:
Проверен
 
.torrent скачан: 1 раз
Хэш: 906685df5d58d858305a36bca8234cfeaeb51d28
Размер: 1.69 ГБ (1 810 391 984 байт)
Стать Автором раздачи
 

Вернуться в Лесбо-фильмы / All Girl & Solo

Кто сейчас на конференции

Сейчас эту тему просматривают: нет зарегистрированных пользователей и гости: 1


Ресурс не предоставляет электронные версии произведений, а занимается лишь коллекционированием и каталогизацией ссылок, присылаемых и публикуемых на форуме нашими читателями. Если вы являетесь правообладателем какого-либо представленного материала и не желаете чтобы ссылка на него находилась в нашем каталоге, свяжитесь с нами и мы незамедлительно удалим её. Файлы для обмена на трекере предоставлены пользователями сайта, и администрация не несёт ответственности за их содержание. Просьба не заливать файлы, защищенные авторскими правами, а также файлы нелегального содержания!
cron