Otome Hime / Нетронутая принцесса (Oota Hideta, Studio 1st, PashminaA) (ep. 1 of 1) [uncen] [2014, romance, big breast, oral, anal, creampie, BDRip] [jap / rus / eng / chi] [1080p]

 Статистика раздачи 
Размер: 1.08 ГБ   |  Зарегистрирован: 26 май 2019, 22:32   |   .torrent скачан: 6 раз
Сидеров: 3  [ 0 байт/сек ]     Личеров: 0  [ 0 байт/сек ]  
  
Аватара пользователя
Раздал: 182.41 ГБ
Скачал: 0 байт
Ратио: Seed.
Сообщения: 108991
Зарегистрирован: 12 окт 2015, 17:13

Otome Hime / Нетронутая принцесса (Oota Hideta, Studio 1st, PashminaA) (ep. 1 of 1) [uncen] [2014, romance, big breast, oral, anal, creampie, BDRip] [jap / rus / eng / chi] [1080p]

Сообщение James Deen » 26 май 2019, 22:32

Otome Hime
オトメヒメ
Нетронутая принцесса

Год выпуска: 2014
Жанр: romance, big breast, oral, anal, creampie
Серии: ep. 1 of 1
Продолжительность: 26mn
Цензура: Отсутствует

Озвучка: Японская оригинальная
Озвучка: Английская профессиональная (полное дублирование) встроенняя
Субтитры: Русские [торрент иваниваныч & Vattok] внешние ASS
Субтитры: Английские [SubDESU-H] встроенные отключаемые ASS и внешние ASS
Субтитры: Китайские [Maho.sub], [Meihu], [宵夜字幕组] внешние ASS

Автор оригинала: Miyabi
Режиссёр: Oota Hideta
Студия: Studio 1st, PashminaA

Описание: Романтику в хентае впору заносить в Красную книгу. Парень приходит домой к однокласснице позаниматься и неожиданно получает признание в любви. А потом они начинают слышать эмоции и мысли друг друга!

anidb

Качество видео: BDrip [LegitRips]
Разрешение видео: 1080p
Формат видео: MKV
Видео: 1920-1080, 16-9, 23.976 fps, AVC, 5489 kbps
Аудио 1: jpn, AAC, Stereo, 48.0 KHz, 255 kbps
Аудио 2: eng, AAC, Stereo, 48.0 KHz, 255 kbps
Скринлист
MediaInfo
General
Unique ID : 228427980533849457616113034402518580457 (0xABD9A0F80720AD0F72BC5242DEC4BCE9)
Complete name : Otome_hime_[UNCEN][BDrip][LegitRips][0F31D9CA].mkv
Format : Matroska
Format version : Version 4
File size : 1.08 GiB
Duration : 25 min 46 s
Overall bit rate : 6 005 kb/s
Encoded date : UTC 2019-05-25 00:04:24
Writing application : mkvmerge v34.0.0 ('Sight and Seen') 64-bit
Writing library : libebml v1.3.7 + libmatroska v1.5.0 / Lavf58.26.101
Cover : Yes
Attachments : Cover.jpg / ALEGREYA-REGULAR.OTF / FLbrsa2U.ttf / KmETypeMercurius-Medium.ttf / MyriadPro-Semibold.ttf / MyriadPro-SemiboldIt.ttf

Video
ID : 1
Format : AVC
Format/Info : Advanced Video Codec
Format profile : High 10@L4
Format settings : CABAC / 4 Ref Frames
Format settings, CABAC : Yes
Format settings, RefFrames : 4 frames
Codec ID : V_MPEG4/ISO/AVC
Duration : 25 min 46 s
Bit rate : 5 489 kb/s
Width : 1 920 pixels
Height : 1 080 pixels
Display aspect ratio : 16:9
Frame rate mode : Variable
Frame rate : 23.976 FPS
Color space : YUV
Chroma subsampling : 4:2:0
Bit depth : 10 bits
Scan type : Progressive
Bits/(Pixel*Frame) : 0.110
Stream size : 1 012 MiB (91%)
Writing library : x264 core 157 r2969 d4099dd
Encoding settings : cabac=1 / ref=3 / deblock=1:0:0 / analyse=0x3:0x113 / me=hex / subme=7 / psy=1 / psy_rd=1.00:0.00 / mixed_ref=1 / me_range=16 / chroma_me=1 / trellis=1 / 8x8dct=1 / cqm=0 / deadzone=21,11 / fast_pskip=1 / chroma_qp_offset=-2 / threads=6 / lookahead_threads=1 / sliced_threads=0 / nr=0 / decimate=1 / interlaced=0 / bluray_compat=0 / constrained_intra=0 / bframes=3 / b_pyramid=2 / b_adapt=1 / b_bias=0 / direct=1 / weightb=1 / open_gop=0 / weightp=2 / keyint=250 / keyint_min=23 / scenecut=40 / intra_refresh=0 / rc_lookahead=40 / rc=crf / mbtree=1 / crf=15.0 / qcomp=0.60 / qpmin=0 / qpmax=81 / qpstep=4 / ip_ratio=1.40 / aq=1:1.00
Language : English
Default : No
Forced : No

Audio #1
ID : 2
Format : AAC LC
Format/Info : Advanced Audio Codec Low Complexity
Codec ID : A_AAC-2
Duration : 25 min 46 s
Bit rate : 255 kb/s
Channel(s) : 2 channels
Channel layout : L R
Sampling rate : 48.0 kHz
Frame rate : 46.875 FPS (1024 SPF)
Compression mode : Lossy
Stream size : 47.0 MiB (4%)
Language : Japanese
Default : Yes
Forced : No

Audio #2
ID : 3
Format : AAC LC
Format/Info : Advanced Audio Codec Low Complexity
Codec ID : A_AAC-2
Duration : 25 min 46 s
Bit rate : 255 kb/s
Channel(s) : 2 channels
Channel layout : L R
Sampling rate : 48.0 kHz
Frame rate : 46.875 FPS (1024 SPF)
Compression mode : Lossy
Stream size : 47.0 MiB (4%)
Language : English
Default : No
Forced : No

Text
ID : 4
Format : ASS
Codec ID : S_TEXT/ASS
Codec ID/Info : Advanced Sub Station Alpha
Duration : 23 min 55 s
Bit rate : 113 b/s
Count of elements : 341
Compression mode : Lossless
Stream size : 19.9 KiB (0%)
Language : English
Default : Yes
Forced : No

Menu
00:00:00.000 : en:Beginning
00:00:27.066 : en:Part A
00:10:50.025 : en:Part B
00:20:00.035 : en:Part C
00:24:13.025 : en:End
Отличия
От vattok – там двдрип с цензурой, здесь бдрип без цензуры без озвучки.
От Variesinhome – там двдапскейл с цензурой, здесь бдрип без цензуры без озвучки.
 
   
Торрент:
Зарегистрирован [26 май 2019, 22:32]
Скачать торрент
Скачать торрент
[ Размер 11.87 КБ / Просмотров 33 ]
Статус:
Проверен
 
.torrent скачан: 6 раз
Хэш: 73a4d5fd97fb9053e498b3c36be6afa4f33698ba
Размер: 1.08 ГБ (1 161 069 862 байт)
Become a Release Author / Стать Автором раздачи


Donate:

Bitcoin: bc1qr4dsl392pjpfzsvcd29lq5dqmxy0fvfallql3q | Ethereum: 0x890E0BD8F101914C256bFdbcBd53fd36AF5ac031


  • Похожие торренты
    Ответы
    Просмотры
    Последнее сообщение

Вернуться в Хентай: основной подраздел / Hentai: main subsection

Кто сейчас на конференции

Сейчас эту тему просматривают: нет зарегистрированных пользователей и гости: 1


Ресурс не предоставляет электронные версии произведений, а занимается лишь коллекционированием и каталогизацией ссылок, присылаемых и публикуемых на форуме нашими читателями. Если вы являетесь правообладателем какого-либо представленного материала и не желаете чтобы ссылка на него находилась в нашем каталоге, свяжитесь с нами и мы незамедлительно удалим её. Файлы для обмена на трекере предоставлены пользователями сайта, и администрация не несёт ответственности за их содержание. Просьба не заливать файлы, защищенные авторскими правами, а также файлы нелегального содержания!
cron