69Girls collection: Babyfaced daughter with huge tits [2015], Rich gorgeous slut [2015], Sex sponge prisoner [2016], Shaved girl with bunny ears and petite tits humps like a rabbit [2016], Lusty busty beauty SEX 2 [2016], Bouncing breasts [2014] (69G

 Статистика раздачи 
Размер: 7.86 ГБ   |  Зарегистрирован: 15 май 2019, 07:02   |   .torrent скачан: 5 раз
Сидеров: 3  [ 0 байт/сек ]     Личеров: 1  [ 0 байт/сек ]  
  
Аватара пользователя
Раздал: 182.41 ГБ
Скачал: 0 байт
Ратио: Seed.
Сообщения: 103421
Зарегистрирован: 12 окт 2015, 17:13

69Girls collection: Babyfaced daughter with huge tits [2015], Rich gorgeous slut [2015], Sex sponge prisoner [2016], Shaved girl with bunny ears and petite tits humps like a rabbit [2016], Lusty busty beauty SEX 2 [2016], Bouncing breasts [2014] (69G

Сообщение James Deen » 15 май 2019, 07:02



Babyfaced daughter with huge tits
童顔爆乳娘

Год выпуска: 2015
Жанр: big breast, oral
Серии: ep. 1 of 1
Продолжительность: 28mn
Цензура: Есть во всех файлах

Озвучка: Японская оригинальная

Студия: 69Girls

Описание: Check out the massive knockers on this cherubic blonde!

Voice: Yufu Hanamigawa

https://www.dlsite.com/ecchi-eng/work/=/product_id/RE151004.html

Качество видео: WEB-DL
Разрешение видео: 1080p
Формат видео: WMV
Видео: 1920-1080, 16-9, 15 fps, VC-1 / WMV3, 2577 kbps
Аудио: jpn, WMA2, Stereo, 44.1 KHz, 60.6 kbps
Скринлист
MediaInfo
General
Complete name : Babyfaced daughter with huge tits (2015) [RE151004][6B52840F].wmv
Format : Windows Media
File size : 534 MiB
Duration : 28 min 5 s
Overall bit rate mode : Variable
Overall bit rate : 2 659 kb/s
Maximum Overall bit rate : 339 Mb/s
Encoded date : UTC 2015-02-23 14:55:44.733

Video
ID : 2
Format : VC-1
Format profile : MP@HL
Codec ID : WMV3
Codec ID/Info : Windows Media Video 9
Codec ID/Hint : WMV3
Description of the codec : Windows Media Video 9
Duration : 28 min 5 s
Bit rate mode : Variable
Bit rate : 2 577 kb/s
Width : 1 920 pixels
Height : 1 080 pixels
Display aspect ratio : 16:9
Frame rate : 15.000 FPS
Color space : YUV
Chroma subsampling : 4:2:0
Bit depth : 8 bits
Scan type : Progressive
Compression mode : Lossy
Bits/(Pixel*Frame) : 0.083
Stream size : 518 MiB (97%)
Language : English

Audio
ID : 1
Format : WMA
Format version : Version 2
Codec ID : 161
Codec ID/Info : Windows Media Audio
Description of the codec : Windows Media Audio 9.2 - VBR Quality 75, 44 kHz, stereo 1-pass VBR
Duration : 28 min 5 s
Bit rate mode : Variable
Bit rate : 60.6 kb/s
Channel(s) : 2 channels
Sampling rate : 44.1 kHz
Bit depth : 16 bits
Stream size : 12.2 MiB (2%)
Language : English





#77Rich gorgeous slut
淫乱セレブ巨乳美女動画

Год выпуска: 2015
Жанр: big breast, oral, paizuri
Серии: ep. 1 of 1
Продолжительность: 40mn
Цензура: Есть во всех файлах

Озвучка: Японская оригинальная

Студия: 69Girls

Описание: Switch POVs between the guy and girl and 3rd person 40 minutes of hot sex with a big breasted beautiful rich woman

CV: Shino

https://www.dlsite.com/ecchi-eng/work/=/product_id/RE155923.html

Качество видео: WEB-DL
Разрешение видео: 1080p
Формат видео: WMV
Видео: 1920-1080, 16-9, 15 fps, VC-1 / WMV3, 3940 kbps
Аудио: jpn, WMA2, Stereo, 44.1 KHz, 77.8 kbps
Скринлист
MediaInfo
General
Complete name : Rich gorgeous slut (2015) [RE155923][156A102B].wmv
Format : Windows Media
File size : 1.13 GiB
Duration : 40 min 0 s
Overall bit rate mode : Variable
Overall bit rate : 4 050 kb/s
Maximum Overall bit rate : 456 Mb/s
Encoded date : UTC 2015-05-22 11:06:06.183

Video
ID : 2
Format : VC-1
Format profile : MP@HL
Codec ID : WMV3
Codec ID/Info : Windows Media Video 9
Codec ID/Hint : WMV3
Description of the codec : Windows Media Video 9
Duration : 40 min 0 s
Bit rate mode : Variable
Bit rate : 3 940 kb/s
Width : 1 920 pixels
Height : 1 080 pixels
Display aspect ratio : 16:9
Frame rate : 15.000 FPS
Color space : YUV
Chroma subsampling : 4:2:0
Bit depth : 8 bits
Scan type : Progressive
Compression mode : Lossy
Bits/(Pixel*Frame) : 0.127
Stream size : 1.10 GiB (97%)
Language : English

Audio
ID : 1
Format : WMA
Format version : Version 2
Codec ID : 161
Codec ID/Info : Windows Media Audio
Description of the codec : Windows Media Audio 9.2 - VBR Quality 75, 44 kHz, stereo 1-pass VBR
Duration : 40 min 0 s
Bit rate mode : Variable
Bit rate : 77.8 kb/s
Channel(s) : 2 channels
Sampling rate : 44.1 kHz
Bit depth : 16 bits
Stream size : 22.3 MiB (2%)
Language : English

#77Bouncing breasts
巨乳乳揺れ動画

Год выпуска: 2014
Жанр: big breast, pool
Серии: ep. 1 of 1
Продолжительность: 31mn
Цензура: Есть во всех файлах

Озвучка: Японская оригинальная

Студия: 69Girls

Описание: Juggies in motion. For breast lovers.

https://www.dlsite.com/ecchi-eng/work/=/product_id/RE143909.html

Качество видео: WEB-DL
Разрешение видео: 1080p
Формат видео: WMV
Видео: 1920-1080, 16-9, 15 fps, VC-1 / WMV3, 6053 kbps
Аудио: jpn, WMA2, Stereo, 44.1 KHz, 98.1 kbps
Скринлист
MediaInfo
General
Complete name : Bouncing breasts (2014) [RE143909][049C533E].wmv
Format : Windows Media
File size : 1.34 GiB
Duration : 30 min 58 s
Overall bit rate mode : Variable
Overall bit rate : 6 198 kb/s
Maximum Overall bit rate : 310 Mb/s
Encoded date : UTC 2014-10-26 10:00:19.299

Video
ID : 2
Format : VC-1
Format profile : MP@HL
Codec ID : WMV3
Codec ID/Info : Windows Media Video 9
Codec ID/Hint : WMV3
Description of the codec : Windows Media Video 9
Duration : 30 min 58 s
Bit rate mode : Variable
Bit rate : 6 053 kb/s
Width : 1 920 pixels
Height : 1 080 pixels
Display aspect ratio : 16:9
Frame rate : 15.000 FPS
Color space : YUV
Chroma subsampling : 4:2:0
Bit depth : 8 bits
Scan type : Progressive
Compression mode : Lossy
Bits/(Pixel*Frame) : 0.195
Stream size : 1.31 GiB (98%)
Language : English

Audio
ID : 1
Format : WMA
Format version : Version 2
Codec ID : 161
Codec ID/Info : Windows Media Audio
Description of the codec : Windows Media Audio 9.2 - VBR Quality 75, 44 kHz, stereo 1-pass VBR
Duration : 30 min 58 s
Bit rate mode : Variable
Bit rate : 98.1 kb/s
Channel(s) : 2 channels
Sampling rate : 44.1 kHz
Bit depth : 16 bits
Stream size : 21.7 MiB (2%)
Language : English





#77Sex sponge prisoner
性処理巨乳娘

Год выпуска: 2016
Жанр: big breast, oral, paizuri
Серии: ep. 1 of 1
Продолжительность: 29mn
Цензура: Есть во всех файлах

Озвучка: Японская оригинальная

Студия: 69Girls

Описание: A busty girl is held captive for a man's sexual purposes.

https://www.dlsite.com/ecchi-eng/work/=/product_id/RE184498.html

Качество видео: WEB-DL
Разрешение видео: 720p
Формат видео: MP4
Видео: 1280-720, 16-9, 30 fps, AVC, 4472 kbps
Аудио: jpn, AAC, Stereo, 48.0 KHz, 192 kbps
Скринлист
MediaInfo
General
Complete name : Sex sponge prisoner (2016) [RE184498][7233E6EE].mp4
Format : MPEG-4
Format profile : Base Media
Codec ID : isom (mp41/mp42)
File size : 978 MiB
Duration : 29 min 16 s
Overall bit rate mode : Variable
Overall bit rate : 4 669 kb/s
Encoded date : UTC 2016-09-01 08:26:03
Tagged date : UTC 2016-09-01 08:26:03

Video
ID : 1
Format : AVC
Format/Info : Advanced Video Codec
Format profile : Main@L3.1
Format settings : CABAC / 2 Ref Frames
Format settings, CABAC : Yes
Format settings, RefFrames : 2 frames
Format settings, GOP : M=3, N=15
Codec ID : avc1
Codec ID/Info : Advanced Video Coding
Duration : 29 min 16 s
Bit rate mode : Variable
Bit rate : 4 472 kb/s
Maximum bit rate : 5 000 kb/s
Width : 1 280 pixels
Height : 720 pixels
Display aspect ratio : 16:9
Frame rate mode : Constant
Frame rate : 30.000 FPS
Standard : NTSC
Color space : YUV
Chroma subsampling : 4:2:0
Bit depth : 8 bits
Scan type : Progressive
Bits/(Pixel*Frame) : 0.162
Stream size : 937 MiB (96%)
Language : English
Encoded date : UTC 2016-09-01 08:26:03
Tagged date : UTC 2016-09-01 08:26:03
Color range : Limited
Color primaries : BT.709
Transfer characteristics : BT.709
Matrix coefficients : BT.709
Codec configuration box : avcC

Audio
ID : 2
Format : AAC LC
Format/Info : Advanced Audio Codec Low Complexity
Codec ID : mp4a-40-2
Duration : 29 min 16 s
Bit rate mode : Constant
Bit rate : 192 kb/s
Channel(s) : 2 channels
Channel layout : L R
Sampling rate : 48.0 kHz
Frame rate : 46.875 FPS (1024 SPF)
Compression mode : Lossy
Stream size : 40.3 MiB (4%)
Language : English
Encoded date : UTC 2016-09-01 08:26:03
Tagged date : UTC 2016-09-01 08:26:03





#77Shaved girl with bunny ears and petite tits humps like a rabbit
うさ耳ぺちゃぱいでパイパン娘と濃厚SEX

Год выпуска: 2016
Жанр: big breast, oral
Серии: ep. 1 of 1
Продолжительность: 32mn
Цензура: Есть во всех файлах

Озвучка: Японская оригинальная

Студия: 69Girls

Описание: Long soft ears... Perky little titty tots... And a smooth-as-silk p*ssy... Don't you wanna hump this hairless hopper? Watch this randy easter slut suck c*ck and f*ck from in a sunny bungalow, the last shot is bukkake all over her face!

CV: Yufu Hanamigawa

https://www.dlsite.com/ecchi-eng/work/=/product_id/RE188106.html

Качество видео: WEB-DL
Разрешение видео: 720p
Формат видео: MP4
Видео: 1280-720, 16-9, 30 fps, AVC, 4501 kbps
Аудио: jpn, AAC, Stereo, 48.0 KHz, 192 kbps
Скринлист
MediaInfo
General
Complete name : Shaved girl with bunny ears and petite tits humps like a rabbit (2016) [RE188106][87D63432].mp4
Format : MPEG-4
Format profile : Base Media
Codec ID : isom (mp41/mp42)
File size : 1.04 GiB
Duration : 31 min 35 s
Overall bit rate mode : Variable
Overall bit rate : 4 698 kb/s
Encoded date : UTC 2016-11-02 10:40:29
Tagged date : UTC 2016-11-02 10:40:29

Video
ID : 1
Format : AVC
Format/Info : Advanced Video Codec
Format profile : Main@L3.1
Format settings : CABAC / 2 Ref Frames
Format settings, CABAC : Yes
Format settings, RefFrames : 2 frames
Format settings, GOP : M=3, N=15
Codec ID : avc1
Codec ID/Info : Advanced Video Coding
Duration : 31 min 35 s
Bit rate mode : Variable
Bit rate : 4 501 kb/s
Maximum bit rate : 5 000 kb/s
Width : 1 280 pixels
Height : 720 pixels
Display aspect ratio : 16:9
Frame rate mode : Constant
Frame rate : 30.000 FPS
Standard : NTSC
Color space : YUV
Chroma subsampling : 4:2:0
Bit depth : 8 bits
Scan type : Progressive
Bits/(Pixel*Frame) : 0.163
Stream size : 1 017 MiB (96%)
Language : English
Encoded date : UTC 2016-11-02 10:40:29
Tagged date : UTC 2016-11-02 10:40:29
Color range : Limited
Color primaries : BT.709
Transfer characteristics : BT.709
Matrix coefficients : BT.709
Codec configuration box : avcC

Audio
ID : 2
Format : AAC LC
Format/Info : Advanced Audio Codec Low Complexity
Codec ID : mp4a-40-2
Duration : 31 min 35 s
Bit rate mode : Constant
Bit rate : 192 kb/s
Channel(s) : 2 channels
Channel layout : L R
Sampling rate : 48.0 kHz
Frame rate : 46.875 FPS (1024 SPF)
Compression mode : Lossy
Stream size : 43.4 MiB (4%)
Language : English
Encoded date : UTC 2016-11-02 10:40:29
Tagged date : UTC 2016-11-02 10:40:29





#77Lusty busty beauty SEX 2
淫乱巨乳美女2

Год выпуска: 2016
Жанр: big breast, oral
Серии: ep. 1 of 1
Продолжительность: 30mn
Цензура: Есть во всех файлах

Озвучка: Японская оригинальная

Студия: 69Girls

Описание: Huge soft bouncing breasts you can enjoy from multiple angles! Enjoy copious bosom shots whil eher warm hand strokes the c*ck her mouth gently fellates and/or is facef*cked, cowgirl and missionary positions, from various angles in MP4 high quality -- even higher than before! More beautiful visuals than before! Please enjoy it, you must!

CV: Kotori Sanai

https://www.dlsite.com/ecchi-eng/work/=/product_id/RE170208.html

Качество видео: WEB-DL
Разрешение видео: 1080p
Формат видео: MP4
Видео: 1920-1080, 16-9, 30 fps, AVC, 13.4 mbps
Аудио: jpn, AAC, Stereo, 48.0 KHz, 192 kbps
Скринлист
MediaInfo
General
Complete name : Lusty busty beauty SEX 2 (2016) [RE170208][FEACACEB].mp4
Format : MPEG-4
Format profile : Base Media
Codec ID : isom (mp41/mp42)
File size : 2.87 GiB
Duration : 30 min 12 s
Overall bit rate mode : Variable
Overall bit rate : 13.6 Mb/s
Encoded date : UTC 2016-01-12 16:35:05
Tagged date : UTC 2016-01-12 16:35:05

Video
ID : 1
Format : AVC
Format/Info : Advanced Video Codec
Format profile : High@L4
Format settings : CABAC / 2 Ref Frames
Format settings, CABAC : Yes
Format settings, RefFrames : 2 frames
Format settings, GOP : M=3, N=15
Codec ID : avc1
Codec ID/Info : Advanced Video Coding
Duration : 30 min 12 s
Bit rate mode : Variable
Bit rate : 13.4 Mb/s
Maximum bit rate : 15.0 Mb/s
Width : 1 920 pixels
Height : 1 080 pixels
Display aspect ratio : 16:9
Frame rate mode : Constant
Frame rate : 30.000 FPS
Standard : NTSC
Color space : YUV
Chroma subsampling : 4:2:0
Bit depth : 8 bits
Scan type : Progressive
Bits/(Pixel*Frame) : 0.216
Stream size : 2.83 GiB (99%)
Language : English
Encoded date : UTC 2016-01-12 16:35:05
Tagged date : UTC 2016-01-12 16:35:05
Color range : Limited
Color primaries : BT.709
Transfer characteristics : BT.709
Matrix coefficients : BT.709
Codec configuration box : avcC

Audio
ID : 2
Format : AAC LC
Format/Info : Advanced Audio Codec Low Complexity
Codec ID : mp4a-40-2
Duration : 30 min 12 s
Bit rate mode : Constant
Bit rate : 192 kb/s
Channel(s) : 2 channels
Channel layout : L R
Sampling rate : 48.0 kHz
Frame rate : 46.875 FPS (1024 SPF)
Compression mode : Lossy
Stream size : 41.6 MiB (1%)
Language : English
Encoded date : UTC 2016-01-12 16:35:05
Tagged date : UTC 2016-01-12 16:35:05
 
   
Торрент:
Зарегистрирован [15 май 2019, 07:02]
Скачать торрент
Скачать торрент
[ Размер 41.38 КБ / Просмотров 8 ]
Статус:
Проверен
 
.torrent скачан: 5 раз
Хэш: 85f5d28c34a8344eeee10556aea7ef3ae6e0d04f
Размер: 7.86 ГБ (8 442 063 299 байт)
Become a Release Author / Стать Автором раздачи


Donate:

Bitcoin: bc1qr4dsl392pjpfzsvcd29lq5dqmxy0fvfallql3q | Ethereum: 0x890E0BD8F101914C256bFdbcBd53fd36AF5ac031


  • Похожие торренты
    Ответы
    Просмотры
    Последнее сообщение

Вернуться в Хентай: 3D / Hentai: 3D

Кто сейчас на конференции

Сейчас эту тему просматривают: нет зарегистрированных пользователей и гости: 1


Ресурс не предоставляет электронные версии произведений, а занимается лишь коллекционированием и каталогизацией ссылок, присылаемых и публикуемых на форуме нашими читателями. Если вы являетесь правообладателем какого-либо представленного материала и не желаете чтобы ссылка на него находилась в нашем каталоге, свяжитесь с нами и мы незамедлительно удалим её. Файлы для обмена на трекере предоставлены пользователями сайта, и администрация не несёт ответственности за их содержание. Просьба не заливать файлы, защищенные авторскими правами, а также файлы нелегального содержания!
cron