Cartagra: Tsukigurui no Yamai / Лунная болезнь (Yamamoto Motoyanagi, Blue Cat, MS Pictures) (ep. 1-2 of 2) [uncen] [CUT] [2009, detective, drama, oral, virgin, paizuri, prostitution, WEB-DL rip] [jap / rus / eng]

 Статистика раздачи 
Размер: 558.35 МБ   |  Зарегистрирован: 11 янв 2019, 03:34   |   .torrent скачан: 0 раз
Сидеров: 1  [ 0 байт/сек ]     Личеров: 0  [ 0 байт/сек ]  
  
В сети
Случайная аватара
Раздал: 2 ГБ
Скачал: 0 байт
Ратио: Seed.
Сообщения: 97720
Зарегистрирован: 12 окт 2015, 17:13

Cartagra: Tsukigurui no Yamai / Лунная болезнь (Yamamoto Motoyanagi, Blue Cat, MS Pictures) (ep. 1-2 of 2) [uncen] [CUT] [2009, detective, drama, oral, virgin, paizuri, prostitution, WEB-DL rip] [jap / rus / eng]

Сообщение James Deen » 11 янв 2019, 03:34

Cartagra: Tsukigurui no Yamai
カルタグラ ツキ狂イノ病
Лунная болезнь

Год выпуска: 2009
Жанр: detective, drama, oral, virgin, paizuri, prostitution
Серии: ep. 1-2 of 2
Продолжительность: 2*30mn
Цензура: Отсутствует

Озвучка: Японская оригинальная
Субтитры: Русские [MAD Naamah] внешние ASS
Субтитры: Английские [Masurenai] внешние ASS

Режиссер: Yamamoto Motoyanagi
Автор оригинала: Innocent Grey
Студия: Blue Cat, MS Pictures

Описание №1: Герой этой истории Такаширо Шуго экс-полицейский, на данный момент он сидит без работы. Но время от времени берется за детективную работу от своего бывшего начальника. По мере развития сюжета главному герою поручают найти пропавшего без вести человека Козуки Юру. Она оказывается его бывшей девушкой. Пока он ищет её, происходит несколько загадочных убийств, которые каким-то образом связаны с ней.

anidb

Доп. информация: Это порезанная версия без цензуры. На этот раз порезали и сюжетные места тоже. С каждым разом всё меньше и меньше хочется этим заниматься. Таймить оригинальную дорожку с двд не стал, подогнал имеющуюся с небольшими искажениями.

Качество видео: WEB-DLrip [торрент иваниваныч]
Разрешение видео: 480p
Формат видео: MKV
Видео: 852-480, 16-9, 29.97 fps, AVC, 1023-1194
Аудио: jpn, AC-3, Stereo, 48.0 KHz, 160 kbps
Скринлисты
MediaInfo 01
General
Unique ID : 253898909182635052360356724909936168425 (0xBF0326B551AD9B14834B61A38B674DE9)
Complete name : Cartagra_-_Tsukigurui_no_yamai_01_[UNCEN][CUT][DLrip][logo][Galan_rus_raw][AF07CF36].mkv
Format : Matroska
Format version : Version 2
File size : 245 MiB
Duration : 28 min 21 s
Overall bit rate : 1 207 kb/s
Movie name : рип торрент иваниваныч
Encoded date : UTC 2019-01-10 06:36:19
Writing application : mkvmerge v6.0.0 ('Coming Up For Air') built on Jan 20 2013 09:52:00
Writing library : libebml v1.3.0 + libmatroska v1.4.0

Video
ID : 1
Format : AVC
Format/Info : Advanced Video Codec
Format profile : High 10@L4.1
Format settings : CABAC / 8 Ref Frames
Format settings, CABAC : Yes
Format settings, RefFrames : 8 frames
Codec ID : V_MPEG4/ISO/AVC
Duration : 28 min 21 s
Bit rate : 1 023 kb/s
Width : 852 pixels
Height : 480 pixels
Display aspect ratio : 16:9
Frame rate mode : Constant
Frame rate : 29.970 (30000/1001) FPS
Color space : YUV
Chroma subsampling : 4:2:0
Bit depth : 10 bits
Scan type : Progressive
Bits/(Pixel*Frame) : 0.083
Stream size : 207 MiB (85%)
Title : Cartagra - Tsukigurui no yamai 01
Writing library : x264 core 152 r2851kMod ba24899
Encoding settings : cabac=1 / ref=8 / deblock=1:-1:-1 / analyse=0x3:0x133 / me=tesa / subme=9 / psy=1 / fade_compensate=0.00 / psy_rd=0.90:0.00 / mixed_ref=1 / me_range=24 / chroma_me=1 / trellis=2 / 8x8dct=1 / cqm=0 / deadzone=21,11 / fast_pskip=1 / chroma_qp_offset=-2 / threads=12 / lookahead_threads=2 / sliced_threads=0 / nr=0 / decimate=0 / interlaced=0 / bluray_compat=0 / constrained_intra=0 / bframes=9 / b_pyramid=2 / b_adapt=2 / b_bias=0 / direct=3 / weightb=1 / open_gop=0 / weightp=2 / keyint=240 / keyint_min=24 / scenecut=40 / intra_refresh=0 / rc=crf / mbtree=0 / crf=16.0000 / qcomp=0.75 / qpmin=0 / qpmax=38 / qpstep=4 / ip_ratio=1.40 / pb_ratio=1.30 / aq=1:0.90
Language : Japanese
Default : Yes
Forced : No

Audio
ID : 2
Format : AC-3
Format/Info : Audio Coding 3
Codec ID : A_AC3
Duration : 28 min 21 s
Bit rate mode : Constant
Bit rate : 160 kb/s
Channel(s) : 2 channels
Channel positions : Front: L R
Sampling rate : 48.0 kHz
Frame rate : 31.250 FPS (1536 SPF)
Bit depth : 16 bits
Compression mode : Lossy
Stream size : 32.5 MiB (13%)
Title : jpn
Language : Japanese
Service kind : Complete Main
Default : Yes
Forced : No

Menu
00:00:00.000 : en:Chapter 1
00:00:32.232 : en:Chapter 2
00:02:15.969 : en:Chapter 3
00:07:38.625 : en:Chapter 4
00:11:37.264 : en:Chapter 5
00:15:45.979 : en:Chapter 6
00:19:52.259 : en:Chapter 7
00:25:32.165 : en:Chapter 8
00:26:43.403 : en:Chapter 9
Отличия
От Octavarium – без цензуры, вырезаны отдельные места, лого.
 
   
Торрент:
Зарегистрирован [11 янв 2019, 03:34]
Скачать торрент Магнет ссылка
Скачать торрент
[ Размер 12.37 КБ / Просмотров 63 ]
Статус:
Проверен
 
.torrent скачан: 0 раз
Хэш: 77c21a00aaf2b59b0a4682efc31c778cb345e418
Размер: 558.35 МБ (585 468 047 байт)
Стать Автором раздачи

  • Похожие торренты
    Ответы
    Просмотры
    Последнее сообщение

Вернуться в Хентай: основной подраздел / Hentai: main subsection

Кто сейчас на конференции

Сейчас эту тему просматривают: нет зарегистрированных пользователей и гости: 1


Ресурс не предоставляет электронные версии произведений, а занимается лишь коллекционированием и каталогизацией ссылок, присылаемых и публикуемых на форуме нашими читателями. Если вы являетесь правообладателем какого-либо представленного материала и не желаете чтобы ссылка на него находилась в нашем каталоге, свяжитесь с нами и мы незамедлительно удалим её. Файлы для обмена на трекере предоставлены пользователями сайта, и администрация не несёт ответственности за их содержание. Просьба не заливать файлы, защищенные авторскими правами, а также файлы нелегального содержания!
cron