Молодые развлекаются[Amateur, Homemade, Russian, CamRip, 10 видео + 13 фото] [Amateur]

 Статистика раздачи 
Размер: 421.16 МБ   |  Зарегистрирован: 20 ноя 2018, 17:53   |   .torrent скачан: 15 раз
Сидеров: 3  [ 0 байт/сек ]     Личеров: 4  [ 0 байт/сек ]  
  
Аватара пользователя
Раздал: 182.41 ГБ
Скачал: 0 байт
Ратио: Seed.
Сообщения: 111535
Зарегистрирован: 12 окт 2015, 17:13

Молодые развлекаются[Amateur, Homemade, Russian, CamRip, 10 видео + 13 фото] [Amateur]

Сообщение James Deen » 20 ноя 2018, 17:53

Молодые развлекаются[Amateur, Homemade, Russian, CamRip, 10 видео + 13 фото]

Жанр: Amateur

Количество фото: 13 шт
Разрешение фото: 1200 x 1600 до 5184 х 3456

Продолжительность видео: 00:00:49, 00:00:33, 00:02:27, 00:01:35, 00:00:42, 00:02:14, 00:11:57, 00:10:25, 00:08:07, 00:07:30

Качество видео: CamRip
Формат видео: MP4

Описание: Красивая девчонка развлекается со своим парнем
Тех. данные:
vid (1).AVI
Format : MPEG-4
Format profile : Base Media
Codec ID : isom (isom/iso2/avc1/mp41)
File size : 6.67 MiB
Duration : 49 s 560 ms
Overall bit rate mode : Variable
Overall bit rate : 1 129 kb/s
Movie name : www.excitemii.com
Writing application : Lavf55.19.104
Comment : www.excitemii.com
Xtra : WM/Category

Video
ID : 1
Format : AVC
Format/Info : Advanced Video Codec
Format profile : Baseline@L1.3
Format settings, CABAC : No
Format settings, RefFrames : 2 frames
Codec ID : avc1
Codec ID/Info : Advanced Video Coding
Duration : 49 s 560 ms
Bit rate : 1 024 kb/s
Width : 1 280 pixels
Height : 720 pixels
Display aspect ratio : 16:9
Frame rate mode : Constant
Frame rate : 25.000 FPS
Color space : YUV
Chroma subsampling : 4:2:0
Bit depth : 8 bits
Scan type : Progressive
Bits/(Pixel*Frame) : 0.044
Stream size : 5.98 MiB (90%)

Audio
ID : 2
Format : AAC
Format/Info : Advanced Audio Codec
Format profile : LC
Codec ID : 40
Duration : 49 s 560 ms
Duration_LastFrame : -15 ms
Bit rate mode : Variable
Bit rate : 111 kb/s
Maximum bit rate : 128 kb/s
Channel(s) : 2 channels
Channel positions : Front: L R
Sampling rate : 44.1 kHz
Frame rate : 43.066 FPS (1024 SPF)
Compression mode : Lossy
Stream size : 673 KiB (10%)
Default : Yes
Alternate group : 1
vid (2).AVI
Format : MPEG-4
Format profile : Base Media
Codec ID : isom (isom/iso2/avc1/mp41)
File size : 4.50 MiB
Duration : 33 s 48 ms
Overall bit rate mode : Variable
Overall bit rate : 1 143 kb/s
Movie name : www.excitemii.com
Writing application : Lavf55.19.104
Comment : www.excitemii.com
Xtra : WM/Category

Video
ID : 1
Format : AVC
Format/Info : Advanced Video Codec
Format profile : Baseline@L1.3
Format settings, CABAC : No
Format settings, RefFrames : 2 frames
Codec ID : avc1
Codec ID/Info : Advanced Video Coding
Duration : 33 s 40 ms
Bit rate : 1 024 kb/s
Width : 1 280 pixels
Height : 720 pixels
Display aspect ratio : 16:9
Frame rate mode : Constant
Frame rate : 25.000 FPS
Color space : YUV
Chroma subsampling : 4:2:0
Bit depth : 8 bits
Scan type : Progressive
Bits/(Pixel*Frame) : 0.044
Stream size : 4.05 MiB (90%)
Writing library : x264 core 140 r2377 1ca7bb9

Audio
ID : 2
Format : AAC
Format/Info : Advanced Audio Codec
Format profile : LC
Codec ID : 40
Duration : 33 s 48 ms
Duration_LastFrame : -18 ms
Bit rate mode : Variable
Bit rate : 110 kb/s
Maximum bit rate : 128 kb/s
Channel(s) : 2 channels
Channel positions : Front: L R
Sampling rate : 44.1 kHz
Frame rate : 43.066 FPS (1024 SPF)
Compression mode : Lossy
Stream size : 446 KiB (10%)
Default : Yes
Alternate group : 1
vid (3).AVI
Format : MPEG-4
Format profile : Base Media
Codec ID : isom (isom/iso2/avc1/mp41)
File size : 20.8 MiB
Duration : 2 min 27 s
Overall bit rate mode : Variable
Overall bit rate : 1 179 kb/s
Movie name : www.excitemii.com
Writing application : Lavf55.19.104
Comment : www.excitemii.com
Xtra : WM/Category

Video
ID : 1
Format : AVC
Format/Info : Advanced Video Codec
Format profile : Baseline@L1.3
Format settings, CABAC : No
Format settings, RefFrames : 2 frames
Format settings, GOP : N=1
Codec ID : avc1
Codec ID/Info : Advanced Video Coding
Duration : 2 min 27 s
Bit rate : 1 024 kb/s
Width : 1 280 pixels
Height : 720 pixels
Display aspect ratio : 16:9
Frame rate mode : Constant
Frame rate : 25.000 FPS
Color space : YUV
Chroma subsampling : 4:2:0
Bit depth : 8 bits
Scan type : Progressive
Bits/(Pixel*Frame) : 0.044
Stream size : 18.7 MiB (90%)
Writing library : x264 core 140 r2377 1ca7bb9

Audio
ID : 2
Format : AAC
Format/Info : Advanced Audio Codec
Format profile : LC
Codec ID : 40
Duration : 2 min 27 s
Duration_LastFrame : -6 ms
Bit rate mode : Variable
Bit rate : 111 kb/s
Maximum bit rate : 128 kb/s
Channel(s) : 2 channels
Channel positions : Front: L R
Sampling rate : 44.1 kHz
Frame rate : 43.066 FPS (1024 SPF)
Compression mode : Lossy
Stream size : 1.95 MiB (9%)
Default : Yes
Alternate group : 1
vid (4).AVI
Format : MPEG-4
Format profile : Base Media
Codec ID : isom (isom/iso2/avc1/mp41)
File size : 13.8 MiB
Duration : 1 min 35 s
Overall bit rate mode : Variable
Overall bit rate : 1 214 kb/s
Movie name : www.excitemii.com
Writing application : Lavf55.19.104
Comment : www.excitemii.com
Xtra : WM/Category

Video
ID : 1
Format : AVC
Format/Info : Advanced Video Codec
Format profile : Baseline@L1.3
Format settings, CABAC : No
Format settings, RefFrames : 2 frames
Format settings, GOP : N=1
Codec ID : avc1
Codec ID/Info : Advanced Video Coding
Duration : 1 min 35 s
Bit rate : 1 100 kb/s
Nominal bit rate : 1 024 kb/s
Width : 1 280 pixels
Height : 720 pixels
Display aspect ratio : 16:9
Frame rate mode : Constant
Frame rate : 25.000 FPS
Color space : YUV
Chroma subsampling : 4:2:0
Bit depth : 8 bits
Scan type : Progressive
Bits/(Pixel*Frame) : 0.048
Stream size : 12.5 MiB (91%)
Writing library : x264 core 140 r2377 1ca7bb9

Audio
ID : 2
Format : AAC
Format/Info : Advanced Audio Codec
Format profile : LC
Codec ID : 40
Duration : 1 min 35 s
Bit rate mode : Variable
Bit rate : 110 kb/s
Maximum bit rate : 128 kb/s
Channel(s) : 2 channels
Channel positions : Front: L R
Sampling rate : 44.1 kHz
Frame rate : 43.066 FPS (1024 SPF)
Compression mode : Lossy
Stream size : 1.25 MiB (9%)
Default : Yes
Alternate group : 1
vid (5).AVI
Format : MPEG-4
Format profile : Base Media
Codec ID : isom (isom/iso2/avc1/mp41)
File size : 5.82 MiB
Duration : 42 s 800 ms
Overall bit rate mode : Variable
Overall bit rate : 1 141 kb/s
Movie name : www.excitemii.com
Writing application : Lavf55.19.104
Comment : www.excitemii.com
Xtra : WM/Category

Video
ID : 1
Format : AVC
Format/Info : Advanced Video Codec
Format profile : Baseline@L1.3
Format settings, CABAC : No
Format settings, RefFrames : 2 frames
Codec ID : avc1
Codec ID/Info : Advanced Video Coding
Duration : 42 s 800 ms
Bit rate : 1 024 kb/s
Width : 1 280 pixels
Height : 720 pixels
Display aspect ratio : 16:9
Frame rate mode : Constant
Frame rate : 25.000 FPS
Color space : YUV
Chroma subsampling : 4:2:0
Bit depth : 8 bits
Scan type : Progressive
Bits/(Pixel*Frame) : 0.044
Stream size : 5.24 MiB (90%)
Writing library : x264 core 140 r2377 1ca7bb9

Audio
ID : 2
Format : AAC
Format/Info : Advanced Audio Codec
Format profile : LC
Codec ID : 40
Duration : 42 s 797 ms
Duration_LastFrame : -21 ms
Bit rate mode : Variable
Bit rate : 109 kb/s
Maximum bit rate : 128 kb/s
Channel(s) : 2 channels
Channel positions : Front: L R
Sampling rate : 44.1 kHz
Frame rate : 43.066 FPS (1024 SPF)
Compression mode : Lossy
Stream size : 569 KiB (10%)
Language : English
Default : Yes
Alternate group : 1
vid (6).AVI
Format : MPEG-4
Format profile : Base Media
Codec ID : isom (isom/iso2/avc1/mp41)
File size : 18.7 MiB
Duration : 2 min 14 s
Overall bit rate mode : Variable
Overall bit rate : 1 167 kb/s
Movie name : www.excitemii.com
Writing application : Lavf55.19.104
Comment : www.excitemii.com
Xtra : WM/Category

Video
ID : 1
Format : AVC
Format/Info : Advanced Video Codec
Format profile : Baseline@L1.3
Format settings, CABAC : No
Format settings, RefFrames : 2 frames
Codec ID : avc1
Codec ID/Info : Advanced Video Coding
Duration : 2 min 14 s
Bit rate : 1 024 kb/s
Width : 1 280 pixels
Height : 720 pixels
Display aspect ratio : 16:9
Frame rate mode : Constant
Frame rate : 25.000 FPS
Color space : YUV
Chroma subsampling : 4:2:0
Bit depth : 8 bits
Scan type : Progressive
Bits/(Pixel*Frame) : 0.044
Stream size : 16.9 MiB (90%)
Writing library : x264 core 140 r2377 1ca7bb9

Audio
ID : 2
Format : AAC
Format/Info : Advanced Audio Codec
Format profile : LC
Codec ID : 40
Duration : 2 min 14 s
Duration_LastFrame : -7 ms
Bit rate mode : Variable
Bit rate : 108 kb/s
Maximum bit rate : 128 kb/s
Channel(s) : 2 channels
Channel positions : Front: L R
Sampling rate : 44.1 kHz
Frame rate : 43.066 FPS (1024 SPF)
Compression mode : Lossy
Stream size : 1.73 MiB (9%)
Language : English
Default : Yes
Alternate group : 1
vid (7).AVI
Format : MPEG-4
Format profile : Base Media
Codec ID : isom (isom/iso2/avc1/mp41)
File size : 96.6 MiB
Duration : 11 min 57 s
Overall bit rate mode : Variable
Overall bit rate : 1 129 kb/s
Movie name : www.excitemii.com
Writing application : Lavf55.19.104
Comment : www.excitemii.com
Xtra : WM/Category

Video
ID : 1
Format : AVC
Format/Info : Advanced Video Codec
Format profile : Baseline@L1.3
Format settings, CABAC : No
Format settings, RefFrames : 2 frames
Codec ID : avc1
Codec ID/Info : Advanced Video Coding
Duration : 11 min 57 s
Bit rate : 1 024 kb/s
Width : 1 280 pixels
Height : 720 pixels
Display aspect ratio : 16:9
Original display aspect rat : 16:9
Frame rate mode : Constant
Frame rate : 25.000 FPS
Color space : YUV
Chroma subsampling : 4:2:0
Bit depth : 8 bits
Scan type : Progressive
Bits/(Pixel*Frame) : 0.044
Stream size : 87.5 MiB (91%)
Writing library : x264 core 140 r2377 1ca7bb9

Audio
ID : 2
Format : AAC
Format/Info : Advanced Audio Codec
Format profile : LC
Codec ID : 40
Duration : 11 min 57 s
Duration_LastFrame : -17 ms
Bit rate mode : Variable
Bit rate : 102 kb/s
Maximum bit rate : 128 kb/s
Channel(s) : 2 channels
Channel positions : Front: L R
Sampling rate : 44.1 kHz
Frame rate : 43.066 FPS (1024 SPF)
Compression mode : Lossy
Stream size : 8.73 MiB (9%)
Language : English
Default : Yes
Alternate group : 1
vid (8).AVI
Format : MPEG-4
Format profile : Base Media
Codec ID : isom (isom/iso2/avc1/mp41)
File size : 84.4 MiB
Duration : 10 min 25 s
Overall bit rate mode : Variable
Overall bit rate : 1 131 kb/s
Movie name : www.excitemii.com
Writing application : Lavf55.19.104
Comment : www.excitemii.com
Xtra : WM/Category

Video
ID : 1
Format : AVC
Format/Info : Advanced Video Codec
Format profile : Baseline@L1.3
Format settings, CABAC : No
Format settings, RefFrames : 2 frames
Codec ID : avc1
Codec ID/Info : Advanced Video Coding
Duration : 10 min 25 s
Bit rate : 1 024 kb/s
Width : 1 280 pixels
Height : 720 pixels
Display aspect ratio : 16:9
Frame rate mode : Constant
Frame rate : 25.000 FPS
Color space : YUV
Chroma subsampling : 4:2:0
Bit depth : 8 bits
Scan type : Progressive
Bits/(Pixel*Frame) : 0.044
Stream size : 75.7 MiB (90%)
Writing library : x264 core 140 r2377 1ca7bb9

Audio
ID : 2
Format : AAC
Format/Info : Advanced Audio Codec
Format profile : LC
Codec ID : 40
Duration : 10 min 25 s
Duration_LastFrame : -1 ms
Bit rate mode : Variable
Bit rate : 112 kb/s
Maximum bit rate : 128 kb/s
Channel(s) : 2 channels
Channel positions : Front: L R
Sampling rate : 44.1 kHz
Frame rate : 43.066 FPS (1024 SPF)
Compression mode : Lossy
Stream size : 8.33 MiB (10%)
Language : English
Default : Yes
Alternate group : 1
vid (9).AVI
Format : MPEG-4
Format profile : Base Media
Codec ID : isom (isom/iso2/avc1/mp41)
File size : 66.7 MiB
Duration : 8 min 7 s
Overall bit rate mode : Variable
Overall bit rate : 1 149 kb/s
Movie name : www.excitemii.com
Writing application : Lavf55.19.104
Comment : www.excitemii.com
Xtra : WM/Category

Video
ID : 1
Format : AVC
Format/Info : Advanced Video Codec
Format profile : Baseline@L1.3
Format settings, CABAC : No
Format settings, RefFrames : 2 frames
Codec ID : avc1
Codec ID/Info : Advanced Video Coding
Duration : 8 min 7 s
Bit rate : 1 024 kb/s
Width : 1 280 pixels
Height : 720 pixels
Display aspect ratio : 16:9
Frame rate mode : Constant
Frame rate : 25.000 FPS
Color space : YUV
Chroma subsampling : 4:2:0
Bit depth : 8 bits
Scan type : Progressive
Bits/(Pixel*Frame) : 0.044
Stream size : 59.7 MiB (89%)
Writing library : x264 core 140 r2377 1ca7bb9

Audio
ID : 2
Format : AAC
Format/Info : Advanced Audio Codec
Format profile : LC
Codec ID : 40
Duration : 8 min 7 s
Bit rate mode : Variable
Bit rate : 116 kb/s
Maximum bit rate : 128 kb/s
Channel(s) : 2 channels
Channel positions : Front: L R
Sampling rate : 44.1 kHz
Frame rate : 43.066 FPS (1024 SPF)
Compression mode : Lossy
Stream size : 6.73 MiB (10%)
Language : English
Default : Yes
Alternate group : 1
vid (10).AVI
Format : MPEG-4
Format profile : Base Media
Codec ID : isom (isom/iso2/avc1/mp41)
File size : 61.0 MiB
Duration : 7 min 30 s
Overall bit rate mode : Variable
Overall bit rate : 1 137 kb/s
Movie name : www.excitemii.com
Writing application : Lavf55.19.104
Comment : www.excitemii.com
Xtra : WM/Category

Video
ID : 1
Format : AVC
Format/Info : Advanced Video Codec
Format profile : Baseline@L1.3
Format settings, CABAC : No
Format settings, RefFrames : 2 frames
Codec ID : avc1
Codec ID/Info : Advanced Video Coding
Duration : 7 min 30 s
Bit rate : 1 024 kb/s
Width : 1 280 pixels
Height : 720 pixels
Display aspect ratio : 16:9
Frame rate mode : Constant
Frame rate : 25.000 FPS
Color space : YUV
Chroma subsampling : 4:2:0
Bit depth : 8 bits
Scan type : Progressive
Bits/(Pixel*Frame) : 0.044
Stream size : 55.0 MiB (90%)
Writing library : x264 core 140 r2377 1ca7bb9

Audio
ID : 2
Format : AAC
Format/Info : Advanced Audio Codec
Format profile : LC
Codec ID : 40
Duration : 7 min 29 s
Duration_LastFrame : -15 ms
Bit rate mode : Variable
Bit rate : 106 kb/s
Maximum bit rate : 128 kb/s
Channel(s) : 2 channels
Channel positions : Front: L R
Sampling rate : 44.1 kHz
Frame rate : 43.066 FPS (1024 SPF)
Compression mode : Lossy
Stream size : 5.71 MiB (9%)
Language : English
Default : Yes
Alternate group : 1
Скриншоты
 
   
Торрент:
Зарегистрирован [20 ноя 2018, 17:53]
Скачать торрент
Скачать торрент
[ Размер 18.5 КБ / Просмотров 274 ]
Статус:
Проверен
 
.torrent скачан: 15 раз
Хэш: 235a95f44b125b1e578e0991fab7adc37c08c717
Размер: 421.16 МБ (441 615 158 байт)
Become a Release Author / Стать Автором раздачи


Donate:

Bitcoin: bc1qr4dsl392pjpfzsvcd29lq5dqmxy0fvfallql3q | Ethereum: 0x890E0BD8F101914C256bFdbcBd53fd36AF5ac031


  • Похожие торренты
    Ответы
    Просмотры
    Последнее сообщение

Вернуться в Русские Порноролики Разное / Russian Clips (various)

Кто сейчас на конференции

Сейчас эту тему просматривают: нет зарегистрированных пользователей и гости: 1


Ресурс не предоставляет электронные версии произведений, а занимается лишь коллекционированием и каталогизацией ссылок, присылаемых и публикуемых на форуме нашими читателями. Если вы являетесь правообладателем какого-либо представленного материала и не желаете чтобы ссылка на него находилась в нашем каталоге, свяжитесь с нами и мы незамедлительно удалим её. Файлы для обмена на трекере предоставлены пользователями сайта, и администрация не несёт ответственности за их содержание. Просьба не заливать файлы, защищенные авторскими правами, а также файлы нелегального содержания!
cron