Seishou Jogangu Alice Doll / Ari Doll / Кукла Алиса (Five Ways) (ep. 1-2 of 2) [uncen] [2000, romance, oral, small breast, group, DVDRip] [jap / rus / eng / por / chi]

 Статистика раздачи 
Размер: 688.75 МБ   |  Зарегистрирован: 09 ноя 2018, 02:29   |   .torrent скачан: 0 раз
Сидеров: 3  [ 0 байт/сек ]     Личеров: 0  [ 0 байт/сек ]  
  
Случайная аватара
Раздал: 2 ГБ
Скачал: 0 байт
Ратио: Seed.
Сообщения: 87285
Зарегистрирован: 12 окт 2015, 17:13

Seishou Jogangu Alice Doll / Ari Doll / Кукла Алиса (Five Ways) (ep. 1-2 of 2) [uncen] [2000, romance, oral, small breast, group, DVDRip] [jap / rus / eng / por / chi]

Сообщение James Deen » 09 ноя 2018, 02:29

Seishou Jogangu Alice Doll
聖少・女玩具 アリスドール
Ari Doll
Кукла Алиса

Год выпуска: 2000
Жанр: romance, oral, small breast, group
Серии: ep. 1-2 of 2
Продолжительность: 2*30mn
Цензура: Отсутствует

Озвучка: Японская оригинальная
Субтитры: Русские [Sevotart & торрент иваниваныч] внешние ASS
Субтитры: Английские внешние IDX+SUB, SRT
Субтитры: Португальские [Lolicons Anonimos] внешние ASS
Субтитры: Китайские внешние IDX+SUB

Режиссер: 秋川りんご
Автор оригинала: Saiya
Студия: Five Ways

Описание: Момоко секретно влюблена в Нао. У Нао сейчас как раз нет девушки. Момока всегда готова позаботиться о Нао в холодные зимние дни. А так как сейчас очень холодно, она решила принять горячую ванну и дождаться возвращения Нао. Нао возвращается домой как обычно. Неизвестно почему, Момока начинает мечтать про Нао и приступает к действию... Видя это, Нао сперва сопротивляется. Но тут они оба... (Из-за постера не обольшайтесь. Лоликона не будет. Обломайтесь.)
© Narrru

anidb

Качество видео: DVDrip [торрент иваниваныч]
Разрешение видео: 480p
Формат видео: MKV
Видео: 700-476, 4-3, 29.97 fps, AVC, ~1300 kbps
Аудио: jpn, AC-3, Stereo, 48.0 KHz, 224 kbps
Скринлисты
MediaInfo 01
General
Unique ID : 178241004560122309730381992179586123284 (0x8617F80346DCF8A58F9A0BAB4F7D4614)
Complete name : Seishou_jogangu_Alice_doll_01v2_[Galan_rus_raw][321E8DF0].mkv
Format : Matroska
Format version : Version 2
File size : 333 MiB
Duration : 29 min 22 s
Overall bit rate : 1 584 kb/s
Movie name : рип торрент иваниваныч
Encoded date : UTC 2018-11-08 12:38:09
Writing application : mkvmerge v6.0.0 ('Coming Up For Air') built on Jan 20 2013 09:52:00
Writing library : libebml v1.3.0 + libmatroska v1.4.0

Video
ID : 1
Format : AVC
Format/Info : Advanced Video Codec
Format profile : High [email protected]
Format settings : CABAC / 8 Ref Frames
Format settings, CABAC : Yes
Format settings, RefFrames : 8 frames
Codec ID : V_MPEG4/ISO/AVC
Duration : 29 min 22 s
Bit rate : 1 329 kb/s
Width : 700 pixels
Height : 476 pixels
Display aspect ratio : 4:3
Original display aspect ratio : 4:3
Frame rate mode : Constant
Frame rate : 29.970 (30000/1001) FPS
Color space : YUV
Chroma subsampling : 4:2:0
Bit depth : 10 bits
Scan type : Progressive
Bits/(Pixel*Frame) : 0.133
Stream size : 279 MiB (84%)
Title : Seishou jogangu Alice doll 01
Writing library : x264 core 152 r2851kMod ba24899
Encoding settings : cabac=1 / ref=8 / deblock=1:-1:-1 / analyse=0x3:0x133 / me=tesa / subme=9 / psy=1 / fade_compensate=0.00 / psy_rd=0.90:0.00 / mixed_ref=1 / me_range=24 / chroma_me=1 / trellis=2 / 8x8dct=1 / cqm=0 / deadzone=21,11 / fast_pskip=1 / chroma_qp_offset=-2 / threads=12 / lookahead_threads=2 / sliced_threads=0 / nr=0 / decimate=0 / interlaced=0 / bluray_compat=0 / constrained_intra=0 / bframes=9 / b_pyramid=2 / b_adapt=2 / b_bias=0 / direct=3 / weightb=1 / open_gop=0 / weightp=2 / keyint=240 / keyint_min=24 / scenecut=40 / intra_refresh=0 / rc=crf / mbtree=0 / crf=16.0000 / qcomp=0.75 / qpmin=0 / qpmax=38 / qpstep=4 / ip_ratio=1.40 / pb_ratio=1.30 / aq=1:0.90
Language : Japanese
Default : Yes
Forced : No

Audio
ID : 2
Format : AC-3
Format/Info : Audio Coding 3
Codec ID : A_AC3
Duration : 29 min 22 s
Bit rate mode : Constant
Bit rate : 224 kb/s
Channel(s) : 2 channels
Channel positions : Front: L R
Sampling rate : 48.0 kHz
Frame rate : 31.250 FPS (1536 SPF)
Bit depth : 16 bits
Compression mode : Lossy
Stream size : 47.1 MiB (14%)
Title : jpn
Language : Japanese
Service kind : Complete Main
Default : Yes
Forced : No

Menu
00:00:00.000 : en:Chapter 1
00:09:39.400 : en:Chapter 2
00:17:39.100 : en:Chapter 3
00:27:09.100 : en:Chapter 4
Отличия
От vattok – улучшенные перевод и рип, сравнение, ещё субтитры.
 
   
Торрент:
Зарегистрирован [09 ноя 2018, 02:29]
Скачать торрент Магнет ссылка
Скачать торрент
[ Размер 15.82 КБ / Просмотров 20 ]
Статус:
Проверен
 
.torrent скачан: 0 раз
Хэш: 989aa96d1e587d4e8883bd17e00da699ad4c9c71
Размер: 688.75 МБ (722 208 407 байт)
Стать Автором раздачи
 

  • Похожие торренты
    Ответы
    Просмотры
    Последнее сообщение

Вернуться в Хентай: основной подраздел / Hentai: main subsection

Кто сейчас на конференции

Сейчас эту тему просматривают: нет зарегистрированных пользователей и гости: 1


Ресурс не предоставляет электронные версии произведений, а занимается лишь коллекционированием и каталогизацией ссылок, присылаемых и публикуемых на форуме нашими читателями. Если вы являетесь правообладателем какого-либо представленного материала и не желаете чтобы ссылка на него находилась в нашем каталоге, свяжитесь с нами и мы незамедлительно удалим её. Файлы для обмена на трекере предоставлены пользователями сайта, и администрация не несёт ответственности за их содержание. Просьба не заливать файлы, защищенные авторскими правами, а также файлы нелегального содержания!
cron