[Watch4Beauty.com] Irene Rouse [Erotic, Solo, Striptease, Masturbation] [ 6 видео 2160p, 6 видео 1080p.]

 Статистика раздачи 
Размер: 8.42 ГБ   |  Зарегистрирован: 30 авг 2018, 04:13   |   .torrent скачан: 0 раз
Сидеров: 3  [ 0 байт/сек ]     Личеров: 0  [ 0 байт/сек ]  
  
Аватара пользователя
Раздал: 182.41 ГБ
Скачал: 0 байт
Ратио: Seed.
Сообщения: 111535
Зарегистрирован: 12 окт 2015, 17:13

[Watch4Beauty.com] Irene Rouse [Erotic, Solo, Striptease, Masturbation] [ 6 видео 2160p, 6 видео 1080p.]

Сообщение James Deen » 30 авг 2018, 04:13

ModelInfo:
Ник: Irene Rouse
ICGID: IR-00YM7
Дата рождения [ДД-MM-ГГГГ]: 07.07.1998
Родина: Колумбия
Первая сессия: 2018
Параметры: 75-63-84
Рост: 170 см, 5 футов 7 дюймов
Вес: 60 кг
Пирсинг: -
Цвет Глаз: Карий
Цвет Волос: Шатенка
Грудь: Маленькая (Настоящая)

Жанр: Erotic, Solo, Striptease, Masturbation
Сайт:Watch4Beauty.com

Количество видеороликов:6 видео 2160p, 6 видео 1080p.
Состав раздачи:
W4B - 2018-05-14 - Irene Rouse - Casting - видеоролик 1080p
W4B - 2018-05-18 - Irene.Rouse - Sexy Dancer - видеоролик 2160p + постер
W4B - 2018-06-01 - Irene Rouse - My Beloved Blanket - видеоролик 1080p
W4B - 2018-06-13 - Irene Rouse - Warm Up Exercise - видеоролик 1080p
W4B - 2018-06-22 - Irene Rouse - In Red - видеоролик 2160p + постер
W4B - 2018-07-17 - Irene Rouse - Bamboo - видеоролик 1080p
W4B - 2018-08-06 - Irene Rouse - Sweet And Hairy - видеоролик 1080p
W4B - 2018-08-13 - Irene Rouse - Irene In Prague - видеоролик 2160p
W4B - 2018-08-23 - Irene Rouse - A Week - видеоролик 2160p
W4B - 2018-08-24 - Irene Rouse - Little Waterfall - видеоролик 2160p
W4B - 2018-08-26 - Irene Rouse - Extremely Attractive - видеоролик 1080p
W4B - 2018-08-28 - Irene Rouse - Blue Pontiac - видеоролик 2160p

В раздаче присутствует папка со всеми скриншотами.
Доп. Информация:
Irene Rouse - thenude.eu
Irene Rouse - indexxx.com


MediaInfo
W4B - 2018-05-14 - Irene Rouse - Casting
General
Complete name : D:\Users\Void\Desktop\Irene Rouse\Видео\W4B - 2018-05-18 - Irene.Rouse - Sexy Dancer\W4B.2018.05.18.Irene.Rouse.Sexy.Dancer.2160p.mp4
Format : MPEG-4
Format profile : Base Media / Version 2
Codec ID : mp42 (mp42/mp41)
File size : 2.23 GiB
Duration : 15 min 48 s
Overall bit rate mode : Variable
Overall bit rate : 20.2 Mb/s
Encoded date : UTC 2018-05-17 12:14:48
Tagged date : UTC 2018-05-17 14:14:45
TIM : 00:00:00:00
TSC : 25
TSZ : 1

Video
ID : 1
Format : AVC
Format/Info : Advanced Video Codec
Format profile : High@L5.1
Format settings : CABAC / 4 Ref Frames
Format settings, CABAC : Yes
Format settings, ReFrames : 4 frames
Codec ID : avc1
Codec ID/Info : Advanced Video Coding
Duration : 15 min 48 s
Bit rate mode : Constant
Bit rate : 20.0 Mb/s
Width : 3 840 pixels
Height : 2 160 pixels
Display aspect ratio : 16:9
Frame rate mode : Constant
Frame rate : 25.000 FPS
Standard : PAL
Color space : YUV
Chroma subsampling : 4:2:0
Bit depth : 8 bits
Scan type : Progressive
Bits/(Pixel*Frame) : 0.096
Stream size : 2.19 GiB (98%)
Language : English
Encoded date : UTC 2018-05-17 12:14:50
Tagged date : UTC 2018-05-17 12:14:50
Color range : Limited
Color primaries : BT.709
Transfer characteristics : BT.709
Matrix coefficients : BT.709

Audio
ID : 2
Format : AAC
Format/Info : Advanced Audio Codec
Format profile : LC
Codec ID : mp4a-40-2
Duration : 15 min 48 s
Source duration : 15 min 48 s
Bit rate mode : Variable
Nominal bit rate : 317 kb/s
Maximum bit rate : 408 kb/s
Channel(s) : 2 channels
Channel positions : Front: L R
Sampling rate : 48.0 kHz
Frame rate : 46.875 FPS (1024 SPF)
Compression mode : Lossy
Source stream size : 35.9 MiB (2%)
Language : English
Encoded date : UTC 2018-05-17 12:14:50
Tagged date : UTC 2018-05-17 12:14:50
W4B - 2018-05-18 - Irene.Rouse - Sexy Dancer
General
Complete name : D:\Users\Void\Desktop\Irene Rouse\Видео\W4B - 2018-06-22 - Irene Rouse - In Red\W4B.2018.06.22.Irene.Rouse.In.Red.2160.mp4
Format : MPEG-4
Format profile : Base Media / Version 2
Codec ID : mp42 (isom/iso2/avc1)
File size : 2.55 GiB
Duration : 12 min 31 s
Overall bit rate mode : Variable
Overall bit rate : 29.2 Mb/s
Encoded date : UTC 2018-06-26 03:31:24
Tagged date : UTC 2018-06-26 03:31:24
Writing application : HandBrake 1.1.1 2018061800

Video
ID : 1
Format : AVC
Format/Info : Advanced Video Codec
Format profile : High@L4.1
Format settings : CABAC / 1 Ref Frames
Format settings, CABAC : Yes
Format settings, ReFrames : 1 frame
Codec ID : avc1
Codec ID/Info : Advanced Video Coding
Duration : 12 min 31 s
Bit rate : 29.0 Mb/s
Width : 3 840 pixels
Height : 2 160 pixels
Display aspect ratio : 16:9
Frame rate mode : Constant
Frame rate : 25.000 FPS
Color space : YUV
Chroma subsampling : 4:2:0
Bit depth : 8 bits
Scan type : Progressive
Bits/(Pixel*Frame) : 0.140
Stream size : 2.54 GiB (99%)
Writing library : x264 core 155 r2901 7d0ff22
Encoding settings : cabac=1 / ref=1 / deblock=1:0:0 / analyse=0x3:0x113 / me=hex / subme=7 / psy=1 / psy_rd=1.00:0.00 / mixed_ref=0 / me_range=16 / chroma_me=1 / trellis=1 / 8x8dct=1 / cqm=0 / deadzone=21,11 / fast_pskip=1 / chroma_qp_offset=-2 / threads=18 / lookahead_threads=3 / sliced_threads=0 / nr=0 / decimate=1 / interlaced=0 / bluray_compat=0 / constrained_intra=0 / bframes=0 / weightp=2 / keyint=250 / keyint_min=25 / scenecut=40 / intra_refresh=0 / rc_lookahead=40 / rc=crf / mbtree=1 / crf=24.0 / qcomp=0.60 / qpmin=0 / qpmax=69 / qpstep=4 / vbv_maxrate=62500 / vbv_bufsize=78125 / crf_max=0.0 / nal_hrd=none / filler=0 / ip_ratio=1.40 / aq=1:1.00
Encoded date : UTC 2018-06-26 03:31:24
Tagged date : UTC 2018-06-26 03:31:24
Color range : Limited
Color primaries : BT.709
Transfer characteristics : BT.709
Matrix coefficients : BT.709

Audio
ID : 2
Format : AAC
Format/Info : Advanced Audio Codec
Format profile : LC
Codec ID : mp4a-40-2
Duration : 12 min 31 s
Bit rate mode : Variable
Bit rate : 158 kb/s
Channel(s) : 2 channels
Channel positions : Front: L R
Sampling rate : 48.0 kHz
Frame rate : 46.875 FPS (1024 SPF)
Compression mode : Lossy
Stream size : 14.2 MiB (1%)
Title : Stereo
Language : English
Default : Yes
Alternate group : 1
Encoded date : UTC 2018-06-26 03:31:24
Tagged date : UTC 2018-06-26 03:31:24
W4B - 2018-06-01 - Irene Rouse - My Beloved Blanket
General
Complete name : D:\Users\Void\Desktop\Irene Rouse\Видео\W4B - 2018-05-14 - Irene Rouse - Casting.mp4
Format : MPEG-4
Format profile : Base Media / Version 2
Codec ID : mp42 (mp42/mp41)
File size : 207 MiB
Duration : 4 min 39 s
Overall bit rate mode : Variable
Overall bit rate : 6 230 kb/s
Encoded date : UTC 2018-05-14 10:40:07
Tagged date : UTC 2018-05-14 10:43:06
TIM : 00:00:00:00
TSC : 50
TSZ : 1

Video
ID : 1
Format : AVC
Format/Info : Advanced Video Codec
Format profile : High@L4.2
Format settings : CABAC / 4 Ref Frames
Format settings, CABAC : Yes
Format settings, ReFrames : 4 frames
Codec ID : avc1
Codec ID/Info : Advanced Video Coding
Duration : 4 min 39 s
Bit rate mode : Constant
Bit rate : 6 000 kb/s
Width : 1 920 pixels
Height : 1 080 pixels
Display aspect ratio : 16:9
Frame rate mode : Constant
Frame rate : 50.000 FPS
Standard : PAL
Color space : YUV
Chroma subsampling : 4:2:0
Bit depth : 8 bits
Scan type : Progressive
Bits/(Pixel*Frame) : 0.058
Stream size : 196 MiB (95%)
Language : English
Encoded date : UTC 2018-05-14 10:40:08
Tagged date : UTC 2018-05-14 10:40:08
Color range : Limited
Color primaries : BT.709
Transfer characteristics : BT.709
Matrix coefficients : BT.709

Audio
ID : 2
Format : AAC
Format/Info : Advanced Audio Codec
Format profile : LC
Codec ID : mp4a-40-2
Duration : 4 min 39 s
Source duration : 4 min 39 s
Bit rate mode : Variable
Nominal bit rate : 317 kb/s
Maximum bit rate : 357 kb/s
Channel(s) : 2 channels
Channel positions : Front: L R
Sampling rate : 48.0 kHz
Frame rate : 46.875 FPS (1024 SPF)
Compression mode : Lossy
Source stream size : 10.6 MiB (5%)
Language : English
Encoded date : UTC 2018-05-14 10:40:08
Tagged date : UTC 2018-05-14 10:40:08
W4B - 2018-06-13 - Irene Rouse - Warm Up Exercise
General
Complete name : D:\Users\Void\Desktop\Irene Rouse\Видео\W4B - 2018-06-01 - Irene Rouse - My Beloved Blanket.mp4
Format : MPEG-4
Format profile : Base Media / Version 2
Codec ID : mp42 (mp42/mp41)
File size : 179 MiB
Duration : 3 min 5 s
Overall bit rate mode : Constant
Overall bit rate : 8 063 kb/s
Encoded date : UTC 2018-05-30 18:27:05
Tagged date : UTC 2018-05-30 18:51:52
TIM : 00:00:00:00
TSC : 50
TSZ : 1

Video
ID : 1
Format : AVC
Format/Info : Advanced Video Codec
Format profile : High@L4.2
Format settings : CABAC / 4 Ref Frames
Format settings, CABAC : Yes
Format settings, ReFrames : 4 frames
Format settings, GOP : M=3, N=50
Codec ID : avc1
Codec ID/Info : Advanced Video Coding
Duration : 3 min 5 s
Bit rate mode : Constant
Bit rate : 8 000 kb/s
Width : 1 920 pixels
Height : 1 080 pixels
Display aspect ratio : 16:9
Frame rate mode : Constant
Frame rate : 50.000 FPS
Standard : PAL
Color space : YUV
Chroma subsampling : 4:2:0
Bit depth : 8 bits
Scan type : Progressive
Bits/(Pixel*Frame) : 0.077
Stream size : 172 MiB (96%)
Language : English
Encoded date : UTC 2018-05-30 18:27:06
Tagged date : UTC 2018-05-30 18:27:06
Color range : Limited
Color primaries : BT.709
Transfer characteristics : BT.709
Matrix coefficients : BT.709

Audio
ID : 2
Format : AAC
Format/Info : Advanced Audio Codec
Format profile : LC
Codec ID : mp4a-40-2
Duration : 3 min 5 s
Bit rate mode : Constant
Bit rate : 317 kb/s
Channel(s) : 2 channels
Channel positions : Front: L R
Sampling rate : 48.0 kHz
Frame rate : 46.875 FPS (1024 SPF)
Compression mode : Lossy
Stream size : 7.03 MiB (4%)
Language : English
Encoded date : UTC 2018-05-30 18:27:07
Tagged date : UTC 2018-05-30 18:27:07
W4B - 2018-06-22 - Irene Rouse - In Red
General
Complete name : D:\Users\Void\Desktop\Irene Rouse\Видео\W4B - 2018-06-13 - Irene Rouse - War Up Exercise.mp4
Format : MPEG-4
Format profile : Base Media / Version 2
Codec ID : mp42 (mp42/mp41)
File size : 209 MiB
Duration : 3 min 35 s
Overall bit rate mode : Variable
Overall bit rate : 8 135 kb/s
Encoded date : UTC 2018-06-11 18:58:58
Tagged date : UTC 2018-06-11 19:01:39
TIM : 00:00:00:00
TSC : 50
TSZ : 1

Video
ID : 1
Format : AVC
Format/Info : Advanced Video Codec
Format profile : High@L4.2
Format settings : CABAC / 4 Ref Frames
Format settings, CABAC : Yes
Format settings, ReFrames : 4 frames
Format settings, GOP : M=3, N=50
Codec ID : avc1
Codec ID/Info : Advanced Video Coding
Duration : 3 min 35 s
Bit rate mode : Constant
Bit rate : 8 000 kb/s
Width : 1 920 pixels
Height : 1 080 pixels
Display aspect ratio : 16:9
Frame rate mode : Constant
Frame rate : 50.000 FPS
Standard : PAL
Color space : YUV
Chroma subsampling : 4:2:0
Bit depth : 8 bits
Scan type : Progressive
Bits/(Pixel*Frame) : 0.077
Stream size : 200 MiB (96%)
Language : English
Encoded date : UTC 2018-06-11 18:58:58
Tagged date : UTC 2018-06-11 18:58:58
Color range : Limited
Color primaries : BT.709
Transfer characteristics : BT.709
Matrix coefficients : BT.709

Audio
ID : 2
Format : AAC
Format/Info : Advanced Audio Codec
Format profile : LC
Codec ID : mp4a-40-2
Duration : 3 min 35 s
Source duration : 3 min 35 s
Bit rate mode : Variable
Nominal bit rate : 317 kb/s
Maximum bit rate : 365 kb/s
Channel(s) : 2 channels
Channel positions : Front: L R
Sampling rate : 48.0 kHz
Frame rate : 46.875 FPS (1024 SPF)
Compression mode : Lossy
Source stream size : 8.14 MiB (4%)
Language : English
Encoded date : UTC 2018-06-11 18:58:58
Tagged date : UTC 2018-06-11 18:58:58
W4B - 2018-07-17 - Irene Rouse - Bamboo
General
Complete name : D:\Users\Void\Desktop\Irene Rouse\Видео\W4B - 2018-07-17 - Irene Rouse - Bamboo.mp4
Format : MPEG-4
Format profile : Base Media / Version 2
Codec ID : mp42 (isom/iso2/avc1)
File size : 217 MiB
Duration : 2 min 19 s
Overall bit rate mode : Variable
Overall bit rate : 13.1 Mb/s
Encoded date : UTC 2018-07-15 22:23:11
Tagged date : UTC 2018-07-15 22:23:11
Writing application : HandBrake 1.1.1 2018061800

Video
ID : 1
Format : AVC
Format/Info : Advanced Video Codec
Format profile : High@L4.1
Format settings : CABAC / 4 Ref Frames
Format settings, CABAC : Yes
Format settings, ReFrames : 4 frames
Codec ID : avc1
Codec ID/Info : Advanced Video Coding
Duration : 2 min 19 s
Bit rate : 12.9 Mb/s
Width : 1 920 pixels
Height : 1 080 pixels
Display aspect ratio : 16:9
Frame rate mode : Constant
Frame rate : 50.000 FPS
Color space : YUV
Chroma subsampling : 4:2:0
Bit depth : 8 bits
Scan type : Progressive
Bits/(Pixel*Frame) : 0.124
Stream size : 215 MiB (99%)
Writing library : x264 core 155 r2901 7d0ff22
Encoding settings : cabac=1 / ref=3 / deblock=1:0:0 / analyse=0x3:0x113 / me=hex / subme=7 / psy=1 / psy_rd=1.00:0.00 / mixed_ref=1 / me_range=16 / chroma_me=1 / trellis=1 / 8x8dct=1 / cqm=0 / deadzone=21,11 / fast_pskip=1 / chroma_qp_offset=-2 / threads=18 / lookahead_threads=3 / sliced_threads=0 / nr=0 / decimate=1 / interlaced=0 / bluray_compat=0 / constrained_intra=0 / bframes=3 / b_pyramid=2 / b_adapt=1 / b_bias=0 / direct=1 / weightb=1 / open_gop=0 / weightp=2 / keyint=500 / keyint_min=50 / scenecut=40 / intra_refresh=0 / rc_lookahead=40 / rc=crf / mbtree=1 / crf=21.0 / qcomp=0.60 / qpmin=0 / qpmax=69 / qpstep=4 / vbv_maxrate=62500 / vbv_bufsize=78125 / crf_max=0.0 / nal_hrd=none / filler=0 / ip_ratio=1.40 / aq=1:1.00
Encoded date : UTC 2018-07-15 22:23:11
Tagged date : UTC 2018-07-15 22:23:11
Color range : Limited
Color primaries : BT.709
Transfer characteristics : BT.709
Matrix coefficients : BT.709

Audio
ID : 2
Format : AAC
Format/Info : Advanced Audio Codec
Format profile : LC
Codec ID : mp4a-40-2
Duration : 2 min 19 s
Bit rate mode : Variable
Bit rate : 157 kb/s
Channel(s) : 2 channels
Channel positions : Front: L R
Sampling rate : 48.0 kHz
Frame rate : 46.875 FPS (1024 SPF)
Compression mode : Lossy
Stream size : 2.62 MiB (1%)
Title : Stereo
Language : English
Default : Yes
Alternate group : 1
Encoded date : UTC 2018-07-15 22:23:11
Tagged date : UTC 2018-07-15 22:23:11
W4B - 2018-08-06 - Irene Rouse - Sweet And Hairy
General
Complete name : K:\Коллекция\Irene Rouse\Irene\Видео\W4B - 2018-08-06 - Irene Rouse - Sweet And Hairy.mp4
Format : MPEG-4
Format profile : Base Media / Version 2
Codec ID : mp42 (mp42/mp41)
File size : 192 MiB
Duration : 3 min 17 s
Overall bit rate mode : Variable
Overall bit rate : 8 160 kb/s
Encoded date : UTC 2018-08-01 10:07:35
Tagged date : UTC 2018-08-01 10:10:47
TIM : 00:00:00:00
TSC : 50
TSZ : 1

Video
ID : 1
Format : AVC
Format/Info : Advanced Video Codec
Format profile : High@L4.2
Format settings : CABAC / 4 Ref Frames
Format settings, CABAC : Yes
Format settings, ReFrames : 4 frames
Format settings, GOP : M=3, N=50
Codec ID : avc1
Codec ID/Info : Advanced Video Coding
Duration : 3 min 17 s
Bit rate mode : Constant
Bit rate : 8 000 kb/s
Width : 1 920 pixels
Height : 1 080 pixels
Display aspect ratio : 16:9
Frame rate mode : Constant
Frame rate : 50.000 FPS
Standard : PAL
Color space : YUV
Chroma subsampling : 4:2:0
Bit depth : 8 bits
Scan type : Progressive
Bits/(Pixel*Frame) : 0.077
Stream size : 184 MiB (96%)
Language : English
Encoded date : UTC 2018-08-01 10:07:35
Tagged date : UTC 2018-08-01 10:07:35
Color range : Limited
Color primaries : BT.709
Transfer characteristics : BT.709
Matrix coefficients : BT.709

Audio
ID : 2
Format : AAC
Format/Info : Advanced Audio Codec
Format profile : LC
Codec ID : mp4a-40-2
Duration : 3 min 17 s
Source duration : 3 min 17 s
Bit rate mode : Variable
Nominal bit rate : 317 kb/s
Maximum bit rate : 369 kb/s
Channel(s) : 2 channels
Channel positions : Front: L R
Sampling rate : 48.0 kHz
Frame rate : 46.875 FPS (1024 SPF)
Compression mode : Lossy
Source stream size : 7.46 MiB (4%)
Language : English
Encoded date : UTC 2018-08-01 10:07:35
Tagged date : UTC 2018-08-01 10:07:35
W4B 2018.08.13 - Irene Rouse - Irene In Prague
General
Complete name : K:\Коллекция\Irene Rouse\Irene\Видео\W4B 2018.08.13 - Irene Rouse - Irene In Prague.mp4
Format : MPEG-4
Format profile : Base Media / Version 2
Codec ID : mp42 (isom/iso2/avc1)
File size : 109 MiB
Duration : 1 min 15 s
Overall bit rate mode : Variable
Overall bit rate : 12.1 Mb/s
Encoded date : UTC 2018-08-07 14:46:21
Tagged date : UTC 2018-08-07 14:46:21
Writing application : HandBrake 1.1.1 2018061800

Video
ID : 1
Format : AVC
Format/Info : Advanced Video Codec
Format profile : High@L4.1
Format settings : CABAC / 1 Ref Frames
Format settings, CABAC : Yes
Format settings, ReFrames : 1 frame
Codec ID : avc1
Codec ID/Info : Advanced Video Coding
Duration : 1 min 15 s
Bit rate : 11.9 Mb/s
Width : 3 840 pixels
Height : 2 160 pixels
Display aspect ratio : 16:9
Frame rate mode : Constant
Frame rate : 25.000 FPS
Color space : YUV
Chroma subsampling : 4:2:0
Bit depth : 8 bits
Scan type : Progressive
Bits/(Pixel*Frame) : 0.057
Stream size : 108 MiB (99%)
Writing library : x264 core 155 r2901 7d0ff22
Encoding settings : cabac=1 / ref=1 / deblock=1:0:0 / analyse=0x3:0x113 / me=hex / subme=7 / psy=1 / psy_rd=1.00:0.00 / mixed_ref=0 / me_range=16 / chroma_me=1 / trellis=1 / 8x8dct=1 / cqm=0 / deadzone=21,11 / fast_pskip=1 / chroma_qp_offset=-2 / threads=18 / lookahead_threads=3 / sliced_threads=0 / nr=0 / decimate=1 / interlaced=0 / bluray_compat=0 / constrained_intra=0 / bframes=0 / weightp=2 / keyint=250 / keyint_min=25 / scenecut=40 / intra_refresh=0 / rc_lookahead=40 / rc=crf / mbtree=1 / crf=23.0 / qcomp=0.60 / qpmin=0 / qpmax=69 / qpstep=4 / vbv_maxrate=62500 / vbv_bufsize=78125 / crf_max=0.0 / nal_hrd=none / filler=0 / ip_ratio=1.40 / aq=1:1.00
Encoded date : UTC 2018-08-07 14:46:21
Tagged date : UTC 2018-08-07 14:46:21
Color range : Limited
Color primaries : BT.709
Transfer characteristics : BT.709
Matrix coefficients : BT.709

Audio
ID : 2
Format : AAC
Format/Info : Advanced Audio Codec
Format profile : LC
Codec ID : mp4a-40-2
Duration : 1 min 15 s
Bit rate mode : Variable
Bit rate : 153 kb/s
Channel(s) : 2 channels
Channel positions : Front: L R
Sampling rate : 48.0 kHz
Frame rate : 46.875 FPS (1024 SPF)
Compression mode : Lossy
Stream size : 1.38 MiB (1%)
Title : Stereo
Language : English
Default : Yes
Alternate group : 1
Encoded date : UTC 2018-08-07 14:46:21
Tagged date : UTC 2018-08-07 14:46:21
W4B - 2018-08-23 - Irene Rouse - A Week
General
Complete name : K:\Коллекция\Irene Rouse\Irene\Видео\W4B - 2018-08-23 - Irene Rouse - A Week.mp4
Format : MPEG-4
Format profile : Base Media / Version 2
Codec ID : mp42 (isom/iso2/avc1)
File size : 359 MiB
Duration : 2 min 11 s
Overall bit rate mode : Variable
Overall bit rate : 22.9 Mb/s
Movie name : EroTelki.ORG - Magic Nude. Teen Paradise
Encoded date : UTC 2018-08-21 07:37:22
Tagged date : UTC 2018-08-21 07:37:22
Writing application : HandBrake 1.1.1 2018061800
Comment : File downloaded from EroTelki.ORG

Video
ID : 1
Format : AVC
Format/Info : Advanced Video Codec
Format profile : High@L4.1
Format settings : CABAC / 1 Ref Frames
Format settings, CABAC : Yes
Format settings, ReFrames : 1 frame
Codec ID : avc1
Codec ID/Info : Advanced Video Coding
Duration : 2 min 11 s
Bit rate : 22.7 Mb/s
Width : 3 840 pixels
Height : 2 160 pixels
Display aspect ratio : 16:9
Frame rate mode : Constant
Frame rate : 25.000 FPS
Color space : YUV
Chroma subsampling : 4:2:0
Bit depth : 8 bits
Scan type : Progressive
Bits/(Pixel*Frame) : 0.110
Stream size : 357 MiB (99%)
Writing library : x264 core 155 r2901 7d0ff22
Encoding settings : cabac=1 / ref=1 / deblock=1:0:0 / analyse=0x3:0x113 / me=hex / subme=7 / psy=1 / psy_rd=1.00:0.00 / mixed_ref=0 / me_range=16 / chroma_me=1 / trellis=1 / 8x8dct=1 / cqm=0 / deadzone=21,11 / fast_pskip=1 / chroma_qp_offset=-2 / threads=18 / lookahead_threads=3 / sliced_threads=0 / nr=0 / decimate=1 / interlaced=0 / bluray_compat=0 / constrained_intra=0 / bframes=0 / weightp=2 / keyint=250 / keyint_min=25 / scenecut=40 / intra_refresh=0 / rc_lookahead=40 / rc=crf / mbtree=1 / crf=23.0 / qcomp=0.60 / qpmin=0 / qpmax=69 / qpstep=4 / vbv_maxrate=62500 / vbv_bufsize=78125 / crf_max=0.0 / nal_hrd=none / filler=0 / ip_ratio=1.40 / aq=1:1.00
Encoded date : UTC 2018-08-21 07:37:22
Tagged date : UTC 2018-08-21 07:37:22
Color range : Limited
Color primaries : BT.709
Transfer characteristics : BT.709
Matrix coefficients : BT.709

Audio
ID : 2
Format : AAC
Format/Info : Advanced Audio Codec
Format profile : LC
Codec ID : mp4a-40-2
Duration : 2 min 11 s
Bit rate mode : Variable
Bit rate : 155 kb/s
Channel(s) : 2 channels
Channel positions : Front: L R
Sampling rate : 48.0 kHz
Frame rate : 46.875 FPS (1024 SPF)
Compression mode : Lossy
Stream size : 2.44 MiB (1%)
Title : Stereo
Language : English
Default : Yes
Alternate group : 1
Encoded date : UTC 2018-08-21 07:37:22
Tagged date : UTC 2018-08-21 07:37:22
W4B - 2018-08-24 - Irene Rouse - Little Waterfall
General
Complete name : K:\Коллекция\Irene Rouse\Irene\Видео\W4B - 2018-08-24 - Irene Rouse - Little Waterfall.mp4
Format : MPEG-4
Format profile : Base Media / Version 2
Codec ID : mp42 (isom/iso2/avc1)
File size : 1.49 GiB
Duration : 10 min 4 s
Overall bit rate mode : Variable
Overall bit rate : 21.2 Mb/s
Encoded date : UTC 2018-08-21 10:38:47
Tagged date : UTC 2018-08-21 10:38:47
Writing application : HandBrake 1.1.1 2018061800

Video
ID : 1
Format : AVC
Format/Info : Advanced Video Codec
Format profile : High@L4.1
Format settings : CABAC / 1 Ref Frames
Format settings, CABAC : Yes
Format settings, ReFrames : 1 frame
Codec ID : avc1
Codec ID/Info : Advanced Video Coding
Duration : 10 min 4 s
Bit rate : 21.1 Mb/s
Width : 3 840 pixels
Height : 2 160 pixels
Display aspect ratio : 16:9
Frame rate mode : Constant
Frame rate : 25.000 FPS
Color space : YUV
Chroma subsampling : 4:2:0
Bit depth : 8 bits
Scan type : Progressive
Bits/(Pixel*Frame) : 0.102
Stream size : 1.48 GiB (99%)
Writing library : x264 core 155 r2901 7d0ff22
Encoding settings : cabac=1 / ref=1 / deblock=1:0:0 / analyse=0x3:0x113 / me=hex / subme=7 / psy=1 / psy_rd=1.00:0.00 / mixed_ref=0 / me_range=16 / chroma_me=1 / trellis=1 / 8x8dct=1 / cqm=0 / deadzone=21,11 / fast_pskip=1 / chroma_qp_offset=-2 / threads=18 / lookahead_threads=3 / sliced_threads=0 / nr=0 / decimate=1 / interlaced=0 / bluray_compat=0 / constrained_intra=0 / bframes=0 / weightp=2 / keyint=250 / keyint_min=25 / scenecut=40 / intra_refresh=0 / rc_lookahead=40 / rc=crf / mbtree=1 / crf=23.0 / qcomp=0.60 / qpmin=0 / qpmax=69 / qpstep=4 / vbv_maxrate=62500 / vbv_bufsize=78125 / crf_max=0.0 / nal_hrd=none / filler=0 / ip_ratio=1.40 / aq=1:1.00
Encoded date : UTC 2018-08-21 10:38:47
Tagged date : UTC 2018-08-21 10:38:47
Color range : Limited
Color primaries : BT.709
Transfer characteristics : BT.709
Matrix coefficients : BT.709

Audio
ID : 2
Format : AAC
Format/Info : Advanced Audio Codec
Format profile : LC
Codec ID : mp4a-40-2
Duration : 10 min 4 s
Bit rate mode : Variable
Bit rate : 159 kb/s
Channel(s) : 2 channels
Channel positions : Front: L R
Sampling rate : 48.0 kHz
Frame rate : 46.875 FPS (1024 SPF)
Compression mode : Lossy
Stream size : 11.4 MiB (1%)
Title : Stereo
Language : English
Default : Yes
Alternate group : 1
Encoded date : UTC 2018-08-21 10:38:47
Tagged date : UTC 2018-08-21 10:38:47
W4B - 2018-08-26 - Irene Rouse - Extremely Attractive
General
Complete name : K:\Коллекция\Irene Rouse\Irene\Видео\W4B - 2018-08-26 - Irene Rouse - Extremely Attractive.mp4
Format : MPEG-4
Format profile : Base Media / Version 2
Codec ID : mp42 (mp42/mp41)
File size : 232 MiB
Duration : 4 min 28 s
Overall bit rate mode : Variable
Overall bit rate : 7 248 kb/s
Encoded date : UTC 2018-08-23 09:36:32
Tagged date : UTC 2018-08-23 09:39:56
TIM : 00:00:00:00
TSC : 50
TSZ : 1

Video
ID : 1
Format : AVC
Format/Info : Advanced Video Codec
Format profile : High@L4.2
Format settings : CABAC / 4 Ref Frames
Format settings, CABAC : Yes
Format settings, ReFrames : 4 frames
Format settings, GOP : M=3, N=50
Codec ID : avc1
Codec ID/Info : Advanced Video Coding
Duration : 4 min 28 s
Bit rate : 6 924 kb/s
Width : 1 920 pixels
Height : 1 080 pixels
Display aspect ratio : 16:9
Frame rate mode : Constant
Frame rate : 50.000 FPS
Color space : YUV
Chroma subsampling : 4:2:0
Bit depth : 8 bits
Scan type : Progressive
Bits/(Pixel*Frame) : 0.067
Stream size : 221 MiB (96%)
Language : English
Encoded date : UTC 2018-08-23 09:36:32
Tagged date : UTC 2018-08-23 09:36:32
Color range : Limited
Color primaries : BT.709
Transfer characteristics : BT.709
Matrix coefficients : BT.709

Audio
ID : 2
Format : AAC
Format/Info : Advanced Audio Codec
Format profile : LC
Codec ID : mp4a-40-2
Duration : 4 min 28 s
Source duration : 4 min 28 s
Bit rate mode : Variable
Nominal bit rate : 317 kb/s
Maximum bit rate : 335 kb/s
Channel(s) : 2 channels
Channel positions : Front: L R
Sampling rate : 48.0 kHz
Frame rate : 46.875 FPS (1024 SPF)
Compression mode : Lossy
Source stream size : 10.1 MiB (4%)
Language : English
Encoded date : UTC 2018-08-23 09:36:33
Tagged date : UTC 2018-08-23 09:36:33
W4B - 2018-08-28 - Irene Rouse - Blue Pontiac
General
Complete name : K:\Коллекция\Irene Rouse\Irene\Видео\W4B - 2018-08-28 - Irene Rouse - Blue Pontiac.mp4
Format : MPEG-4
Format profile : Base Media / Version 2
Codec ID : mp42 (isom/iso2/avc1)
File size : 417 MiB
Duration : 4 min 19 s
Overall bit rate mode : Variable
Overall bit rate : 13.5 Mb/s
Encoded date : UTC 2018-08-26 19:39:21
Tagged date : UTC 2018-08-26 19:39:21
Writing application : HandBrake 1.1.1 2018061800

Video
ID : 1
Format : AVC
Format/Info : Advanced Video Codec
Format profile : High@L4.1
Format settings : CABAC / 1 Ref Frames
Format settings, CABAC : Yes
Format settings, ReFrames : 1 frame
Codec ID : avc1
Codec ID/Info : Advanced Video Coding
Duration : 4 min 19 s
Bit rate : 13.3 Mb/s
Width : 3 840 pixels
Height : 2 160 pixels
Display aspect ratio : 16:9
Frame rate mode : Constant
Frame rate : 25.000 FPS
Color space : YUV
Chroma subsampling : 4:2:0
Bit depth : 8 bits
Scan type : Progressive
Bits/(Pixel*Frame) : 0.064
Stream size : 412 MiB (99%)
Writing library : x264 core 155 r2901 7d0ff22
Encoding settings : cabac=1 / ref=1 / deblock=1:0:0 / analyse=0x3:0x113 / me=hex / subme=7 / psy=1 / psy_rd=1.00:0.00 / mixed_ref=0 / me_range=16 / chroma_me=1 / trellis=1 / 8x8dct=1 / cqm=0 / deadzone=21,11 / fast_pskip=1 / chroma_qp_offset=-2 / threads=18 / lookahead_threads=3 / sliced_threads=0 / nr=0 / decimate=1 / interlaced=0 / bluray_compat=0 / constrained_intra=0 / bframes=0 / weightp=2 / keyint=250 / keyint_min=25 / scenecut=40 / intra_refresh=0 / rc_lookahead=40 / rc=crf / mbtree=1 / crf=23.0 / qcomp=0.60 / qpmin=0 / qpmax=69 / qpstep=4 / vbv_maxrate=62500 / vbv_bufsize=78125 / crf_max=0.0 / nal_hrd=none / filler=0 / ip_ratio=1.40 / aq=1:1.00
Encoded date : UTC 2018-08-26 19:39:21
Tagged date : UTC 2018-08-26 19:39:21
Color range : Limited
Color primaries : BT.709
Transfer characteristics : BT.709
Matrix coefficients : BT.709

Audio
ID : 2
Format : AAC
Format/Info : Advanced Audio Codec
Format profile : LC
Codec ID : mp4a-40-2
Duration : 4 min 19 s
Bit rate mode : Variable
Bit rate : 159 kb/s
Channel(s) : 2 channels
Channel positions : Front: L R
Sampling rate : 48.0 kHz
Frame rate : 46.875 FPS (1024 SPF)
Compression mode : Lossy
Stream size : 4.90 MiB (1%)
Title : Stereo
Language : English
Default : Yes
Alternate group : 1
Encoded date : UTC 2018-08-26 19:39:21
Tagged date : UTC 2018-08-26 19:39:21



Скриншоты
W4B - 2018-05-14 - Irene Rouse - Casting
W4B - 2018-05-18 - Irene Rouse - Sexy Dancer
W4B - 2018-06-01 - Irene Rouse - My Beloved Blanket
W4B - 2018-06-13 - Irene Rouse - War Up Exercise
W4B - 2018-06-22- Irene Rouse - In Red
W4B - 2018-07-17 - Irene Rouse - Bamboo
W4B - 2018-08-06 - Irene Rouse - Sweet And Hairy
W4B - 2018-08-13 - Irene Rouse - Irene In Prague
W4B - 2018-08-23 - Irene Rouse - A Week
W4B - 2018-08-24 - Irene Rouse - Little Waterfall
W4B - 2018-08-26 - Irene Rouse - Extremely Attractive
W4B - 2018-08-28 - Irene Rouse - Blue Pontiac
Обложки
ЗЫ: На случай если прогорят скрины обложек, все обложки есть в раздаче. В данной раздаче только обложки на видео выпуски. А на выпуски в которых видео и фото, обложки в раздаче фотосетов.
ЗЫзы: Ссылку на раздачу фотосетов убрал, так как задолбали наезжать на мои ссылки которые у меня идут только через АПСПОТ и у других не работают. Так что всё вопросы типа а где сама раздача фото. обращайте к Гражданину Поиску.
 
   
Торрент:
Зарегистрирован [30 авг 2018, 04:13]
Скачать торрент
Скачать торрент
[ Размер 49.25 КБ / Просмотров 92 ]
Статус:
Проверен
 
.torrent скачан: 0 раз
Хэш: ce2605e4f6808812d63916c95c787849b9cdb0fd
Размер: 8.42 ГБ (9 043 572 926 байт)
Become a Release Author / Стать Автором раздачи


Donate:

Bitcoin: bc1qr4dsl392pjpfzsvcd29lq5dqmxy0fvfallql3q | Ethereum: 0x890E0BD8F101914C256bFdbcBd53fd36AF5ac031


  • Похожие торренты
    Ответы
    Просмотры
    Последнее сообщение

Вернуться в Эротические студии (видео) / Erotic Video Library

Кто сейчас на конференции

Сейчас эту тему просматривают: нет зарегистрированных пользователей и гости: 1


Ресурс не предоставляет электронные версии произведений, а занимается лишь коллекционированием и каталогизацией ссылок, присылаемых и публикуемых на форуме нашими читателями. Если вы являетесь правообладателем какого-либо представленного материала и не желаете чтобы ссылка на него находилась в нашем каталоге, свяжитесь с нами и мы незамедлительно удалим её. Файлы для обмена на трекере предоставлены пользователями сайта, и администрация не несёт ответственности за их содержание. Просьба не заливать файлы, защищенные авторскими правами, а также файлы нелегального содержания!
cron