[UnderMyPrincess.com / FemdomUncut.com] Princess Roxy Cigarette And Piss / Принцесса Рокси курит и писает [2016 г., Femdom, 1080i]

 Статистика раздачи 
Размер: 476.87 МБ   |  Зарегистрирован: 07 янв 2017, 16:29   |   .torrent скачан: 1 раз
Сидеров: 3  [ 0 байт/сек ]     Личеров: 1  [ 0 байт/сек ]  
  
Случайная аватара
Раздал: 2 ГБ
Скачал: 0 байт
Ратио: Seed.
Сообщения: 45862
Зарегистрирован: 12 окт 2015, 17:13

[UnderMyPrincess.com / FemdomUncut.com] Princess Roxy Cigarette And Piss / Принцесса Рокси курит и писает [2016 г., Femdom, 1080i]

Сообщение James Deen » 07 янв 2017, 16:29

Princess Roxy Cigarette And Piss / Принцесса Рокси курит и писает

Год производства: 2016 г.
Страна: Germany
Жанр: Femdom
Продолжительность: 00:12:45

Студия: UnderMyPrincess.com (FemdomUncut.com)

В ролях: Princess Roxy

Описание: First Roxy enjoys a cigarette while the slave is licking her shoes. She spits at him and uses him as a human ashtray. At the end she piss in his mouth.

Доп. информация: http://www.undermyprincess.com/en/collections/princ...garette-and-piss

Тип HD видео: 1080i
Формат видео: WMV
Видео: VC-1, 1920x1080 (16:9), 25 fps, 5000 Kbps
Аудио: WMA, 48 KHz, 2.0 ch, 192 Kbps
MediaInfo
General
Complete name : C:\Documents and Settings\Princess Roxy Cigarette And Piss.wmv
Format : Windows Media
File size : 477 MiB
Duration : 12mn 44s
Overall bit rate mode : Constant
Overall bit rate : 5 229 Kbps
Maximum Overall bit rate : 5 234 Kbps
Movie name : Mein Film 2
Encoded date : UTC 2016-11-15 19:31:04.178
Copyright : ©

Video
ID : 2
Format : VC-1
Format profile : Advanced@L3
Codec ID : WVC1
Codec ID/Hint : Microsoft
Description of the codec : Windows Media Video 9 Advanced Profile
Duration : 12mn 44s
Bit rate mode : Constant
Bit rate : 5 000 Kbps
Width : 1 920 pixels
Height : 1 080 pixels
Display aspect ratio : 16:9
Frame rate : 25.000 fps
Chroma subsampling : 4:2:0
Bit depth : 8 bits
Scan type : Mixed
Scan order : Bottom Field First
Compression mode : Lossy
Bits/(Pixel*Frame) : 0.096
Stream size : 456 MiB (96%)
Language : English (US)

Audio
ID : 1
Format : WMA
Format version : Version 2
Codec ID : 161
Codec ID/Info : Windows Media Audio
Description of the codec : Windows Media Audio 9.2 - 192 kbps, 48 kHz, stereo (A/V) 1-pass CBR
Duration : 12mn 44s
Bit rate mode : Constant
Bit rate : 192 Kbps
Channel(s) : 2 channels
Sampling rate : 48.0 KHz
Bit depth : 16 bits
Stream size : 17.5 MiB (4%)
Language : English (US)
Скриншоты

 
   
Торрент:
Зарегистрирован [07 янв 2017, 16:29]
Скачать торрент Магнет ссылка
Скачать торрент
[ Размер 19.07 КБ / Просмотров 5 ]
Статус:
Проверен
 
.torrent скачан: 1 раз
Хэш: 4577b8a7f7c4dc7be9873b097fa6243ab4ac4c5a
Размер: 476.87 МБ (500 034 157 байт)
 

Вернуться в Эротические студии Разное / Erotic Picture Gallery (various)

Кто сейчас на конференции

Сейчас эту тему просматривают: нет зарегистрированных пользователей и гости: 1


Ресурс не предоставляет электронные версии произведений, а занимается лишь коллекционированием и каталогизацией ссылок, присылаемых и публикуемых на форуме нашими читателями. Если вы являетесь правообладателем какого-либо представленного материала и не желаете чтобы ссылка на него находилась в нашем каталоге, свяжитесь с нами и мы незамедлительно удалим её. Файлы для обмена на трекере предоставлены пользователями сайта, и администрация не несёт ответственности за их содержание. Просьба не заливать файлы, защищенные авторскими правами, а также файлы нелегального содержания!
cron