All Natural Glamour Solos 3 / Всё натуральное гламур соло 3 (Girlfriends Films) [2013 г., Solo, Masturbation, Natural, DVDRip-AVC] (Celeste Star, Eufrat, Gracie Glam, Shyla Jennings, Malena Morgan, Hayden Hawkens, Cassie Laine, Sophia Knight)

 Статистика раздачи 
Размер: 1.11 ГБ   |  Зарегистрирован: 04 сен 2015, 21:31   |   .torrent скачан: 41 раз
Сидеров: 4  [ 0 байт/сек ]     Личеров: 1  [ 0 байт/сек ]  
  
Аватара пользователя
Раздал: 159.1 ГБ
Скачал: 62.65 ГБ
Ратио: 2.539
Сообщения: 354180
Зарегистрирован: 27 июл 2015, 20:38

All Natural Glamour Solos 3 / Всё натуральное гламур соло 3 (Girlfriends Films) [2013 г., Solo, Masturbation, Natural, DVDRip-AVC] (Celeste Star, Eufrat, Gracie Glam, Shyla Jennings, Malena Morgan, Hayden Hawkens, Cassie Laine, Sophia Knight)

Сообщение MalonE » 18 апр 2013, 11:16

All Natural Glamour Solos 3 / Всё натуральное гламур соло 3-
Год производства: 2013 г.
Страна: USA
Жанр: Solo, Masturbation, Natural
Продолжительность: 02:04:10
Студия: Girlfriends Films
Язык: Английский
В ролях: Celeste Star, Eufrat, Gracie Glam, Shyla Jennings, Malena Morgan, Hayden Hawkens, Cassie Laine, Sophia Knight, Mia Malkova, Kennedy Leigh, Aspen Rae, Natalia Starr
Описание: Beautiful babes getting themselves off!
Доп. информация: http://www.adultdvdempire.com/1647603/all-natural-g...porn-movies.html
Релиз группы: Pr0nStarS
Качество видео: DVDRip-AVC
Формат видео: MP4
Видео кодек: H.264/AVC
Аудио кодек: AAC
Видео: : 704x392 (1.80:1), 29.970 fps, ~1137 kbps avg @ crf 20, 0.138 bit/pixel
Аудио: 48 kHz, 2 ch, ~136 kbps
MediaInfo
Код:
Код: Выделить всё
Общее
Полное имя                               : All.Natural.Glamour.Solos.3.XXX.DVDRip.x264-Pr0nStarS.mp4
Формат                                   : MPEG-4
Профиль формата                          : Base Media
Идентификатор кодека                     : isom
Размер файла                             : 1,11 Гбайт
Продолжительность                        : 2 ч. 4 м.
Режим общего битрейта                    : Переменный
Общий поток                              : 1278 Кбит/сек
Дата кодирования                         : UTC 2013-04-16 06:10:37
Дата пометки                             : UTC 2013-04-16 06:10:37
Видео
Идентификатор                            : 1
Формат                                   : AVC
Формат/Информация                        : Advanced Video Codec
Профиль формата                          : [email protected]
Параметр CABAC формата                   : Да
Параметр ReFrames формата                : 5 кадров
Идентификатор кодека                     : avc1
Идентификатор кодека/Информация          : Advanced Video Coding
Продолжительность                        : 2 ч. 4 м.
Битрейт                                  : 1137 Кбит/сек
Максимальный битрейт                     : 6457 Кбит/сек
Ширина                                   : 704 пикселя
Высота                                   : 392 пикселя
Соотношение сторон                       : 16:9
Режим частоты кадров                     : Постоянный
Частота кадров                           : 29,970 кадров/сек
Цветовое пространство                    : YUV
Субдискретизация насыщенности            : 4:2:0
Битовая глубина                          : 8 бит
Тип развёртки                            : Прогрессивная
Бит/(Пиксели*Кадры)                      : 0.138
Размер потока                            : 1010 Мбайт (89%)
Заголовок                                : 264#trackID=1:[email protected]
Библиотека кодирования                   : x264 core 130 r2273 b3065e6
Настройки программы                      : cabac=1 / ref=5 / deblock=1:0:0 / analyse=0x3:0x113 / me=umh / subme=8 / psy=1 / psy_rd=1.00:0.00 / mixed_ref=1 / me_range=16 / chroma_me=1 / trellis=1 / 8x8dct=1 / cqm=0 / deadzone=21,11 / fast_pskip=0 / chroma_qp_offset=-2 / threads=3 / lookahead_threads=1 / sliced_threads=0 / nr=0 / decimate=1 / interlaced=0 / bluray_compat=0 / constrained_intra=0 / bframes=3 / b_pyramid=2 / b_adapt=2 / b_bias=0 / direct=3 / weightb=1 / open_gop=0 / weightp=2 / keyint=300 / keyint_min=29 / scenecut=40 / intra_refresh=0 / rc_lookahead=50 / rc=crf / mbtree=1 / crf=20.0 / qcomp=0.60 / qpmin=0 / qpmax=69 / qpstep=4 / ip_ratio=1.40 / aq=1:1.00
Дата кодирования                         : UTC 2013-04-16 06:10:37
Дата пометки                             : UTC 2013-04-16 06:11:57
Аудио
Идентификатор                            : 2
Формат                                   : AAC
Формат/Информация                        : Advanced Audio Codec
Профиль формата                          : LC
Идентификатор кодека                     : 40
Продолжительность                        : 2 ч. 4 м.
Вид битрейта                             : Переменный
Битрейт                                  : 136 Кбит/сек
Максимальный битрейт                     : 197 Кбит/сек
Каналы                                   : 2 канала
Расположение каналов                     : Front: L R
Частота                                  : 48,0 КГц
Метод сжатия                             : С потерями
Размер потока                            : 121 Мбайт (11%)
Дата кодирования                         : UTC 2013-04-16 01:04:28
Дата пометки                             : UTC 2013-04-16 06:11:57

Скринлист
Скриншоты
 
   
Торрент:
Зарегистрирован [04 сен 2015, 21:31]
Скачать торрент Магнет ссылка
Скачать торрент
[ Размер 11.5 КБ / Просмотров 13 ]
Статус:
Проверен
 
.torrent скачан: 41 раз
Хэш: bc9330f367e1fe039b8669794ef115c921f68070
Размер: 1.11 ГБ (1 189 864 525 байт)
Стать Автором раздачи
 

  • Похожие торренты
    Ответы
    Просмотры
    Последнее сообщение

Вернуться в Лесбо-фильмы / All Girl & Solo

Кто сейчас на конференции

Сейчас эту тему просматривают: нет зарегистрированных пользователей и гости: 1


Ресурс не предоставляет электронные версии произведений, а занимается лишь коллекционированием и каталогизацией ссылок, присылаемых и публикуемых на форуме нашими читателями. Если вы являетесь правообладателем какого-либо представленного материала и не желаете чтобы ссылка на него находилась в нашем каталоге, свяжитесь с нами и мы незамедлительно удалим её. Файлы для обмена на трекере предоставлены пользователями сайта, и администрация не несёт ответственности за их содержание. Просьба не заливать файлы, защищенные авторскими правами, а также файлы нелегального содержания!
cron