Newswomen / Журналистки (Girlfriends Films) [2012 г., Girl-Girl, All Girl, Lesbian, DVDRip-AVC] (Julia Ann, India Summer, Samantha Ryan, Angell Summers, Angela Summers, Aryana Augustine, Elisa)

 Статистика раздачи 
Размер: 1.4 ГБ   |  Зарегистрирован: 05 сен 2015, 22:57   |   .torrent скачан: 3 раз
Сидеров: 3  [ 0 байт/сек ]     Личеров: 0  [ 0 байт/сек ]  
  
В сети
Аватара пользователя
Раздал: 159.1 ГБ
Скачал: 62.65 ГБ
Ратио: 2.539
Сообщения: 354180
Зарегистрирован: 27 июл 2015, 20:38

Newswomen / Журналистки (Girlfriends Films) [2012 г., Girl-Girl, All Girl, Lesbian, DVDRip-AVC] (Julia Ann, India Summer, Samantha Ryan, Angell Summers, Angela Summers, Aryana Augustine, Elisa)

Сообщение MalonE » 03 фев 2013, 12:18

Newswomen / Журналистки-Год производства: 2012 г.
Страна: USA
Жанр: Girl-Girl, All Girl, Lesbian
Продолжительность: 02:44:29
Студия: Girlfriends Films
Язык: Английский
В ролях: Julia Ann, India Summer, Samantha Ryan, Angell Summers, Angela Summers, Aryana Augustine, Elisa
Описание: Sleeping their way to the top!
Hot lesbian Newswomen make themselves very newsworthy, loving each other to no end!
Доп. информация: http://www.adultdvdempire.com/1636186/newswomen-porn-movies.html
Релиз группы: UPPERCUT
Качество видео: DVDRip-AVC
Формат видео: MP4
Видео кодек: H.264/AVC
Аудио кодек: AAC
Видео: 720x404 (1.78:1), 29.970 fps, ~1040 kbps avg @ crf 20, 0.11 bit/pixel
Аудио: 48 kHz, 2 ch, ~174 kbps
MediaInfo
Код:
Код: Выделить всё
Общее
Полное имя                               : Newswomen.XXX.DVDRip.x264-UPPERCUT.mp4
Формат                                   : MPEG-4
Профиль формата                          : Base Media
Идентификатор кодека                     : isom
Размер файла                             : 1,40 Гбайт
Продолжительность                        : 2 ч. 44 м.
Режим общего битрейта                    : Переменный
Общий поток                              : 1219 Кбит/сек
Дата кодирования                         : UTC 2013-02-01 23:41:00
Дата пометки                             : UTC 2013-02-01 23:41:00
Видео
Идентификатор                            : 1
Формат                                   : AVC
Формат/Информация                        : Advanced Video Codec
Профиль формата                          : [email protected]
Параметр CABAC формата                   : Да
Параметр ReFrames формата                : 5 кадров
Идентификатор кодека                     : avc1
Идентификатор кодека/Информация          : Advanced Video Coding
Продолжительность                        : 2 ч. 44 м.
Битрейт                                  : 1040 Кбит/сек
Максимальный битрейт                     : 6251 Кбит/сек
Ширина                                   : 720 пикселей
Высота                                   : 404 пикселя
Соотношение сторон                       : 16:9
Режим частоты кадров                     : Постоянный
Частота кадров                           : 29,970 кадров/сек
Цветовое пространство                    : YUV
Субдискретизация насыщенности            : 4:2:0
Битовая глубина                          : 8 бит
Тип развёртки                            : Прогрессивная
Бит/(Пиксели*Кадры)                      : 0.119
Размер потока                            : 1,20 Гбайт (85%)
Библиотека кодирования                   : x264 core 129 r2245 bc13772
Настройки программы                      : cabac=1 / ref=5 / deblock=1:0:0 / analyse=0x3:0x113 / me=umh / subme=8 / psy=1 / psy_rd=1.00:0.00 / mixed_ref=1 / me_range=16 / chroma_me=1 / trellis=1 / 8x8dct=1 / cqm=0 / deadzone=21,11 / fast_pskip=0 / chroma_qp_offset=-2 / threads=6 / lookahead_threads=1 / sliced_threads=0 / nr=0 / decimate=1 / interlaced=0 / bluray_compat=0 / constrained_intra=0 / bframes=3 / b_pyramid=2 / b_adapt=2 / b_bias=0 / direct=3 / weightb=1 / open_gop=0 / weightp=2 / keyint=300 / keyint_min=29 / scenecut=40 / intra_refresh=0 / rc_lookahead=50 / rc=crf / mbtree=1 / crf=20.0 / qcomp=0.60 / qpmin=0 / qpmax=69 / qpstep=4 / ip_ratio=1.40 / aq=1:1.00
Дата кодирования                         : UTC 2013-02-01 23:41:00
Дата пометки                             : UTC 2013-02-01 23:41:15
Аудио
Идентификатор                            : 2
Формат                                   : AAC
Формат/Информация                        : Advanced Audio Codec
Профиль формата                          : LC
Идентификатор кодека                     : 40
Продолжительность                        : 2 ч. 44 м.
Вид битрейта                             : Переменный
Битрейт                                  : 174 Кбит/сек
Максимальный битрейт                     : 243 Кбит/сек
Каналы                                   : 2 канала
Расположение каналов                     : Front: L R
Частота                                  : 48,0 КГц
Метод сжатия                             : С потерями
Размер потока                            : 205 Мбайт (14%)
Дата кодирования                         : UTC 2013-02-01 23:41:13
Дата пометки                             : UTC 2013-02-01 23:41:15

Скринлист
Скриншоты

 
   
Торрент:
Зарегистрирован [05 сен 2015, 22:57]
Скачать торрент Магнет ссылка
Скачать торрент
[ Размер 14.39 КБ / Просмотров 15 ]
Статус:
Проверен
 
.torrent скачан: 3 раз
Хэш: 8d1d8f90bfd50d4f7cc4ea81d59b62c57c93ce23
Размер: 1.4 ГБ (1 503 655 870 байт)
Стать Автором раздачи
 

Вернуться в Лесбо-фильмы / All Girl & Solo

Кто сейчас на конференции

Сейчас эту тему просматривают: нет зарегистрированных пользователей и гости: 1


Ресурс не предоставляет электронные версии произведений, а занимается лишь коллекционированием и каталогизацией ссылок, присылаемых и публикуемых на форуме нашими читателями. Если вы являетесь правообладателем какого-либо представленного материала и не желаете чтобы ссылка на него находилась в нашем каталоге, свяжитесь с нами и мы незамедлительно удалим её. Файлы для обмена на трекере предоставлены пользователями сайта, и администрация не несёт ответственности за их содержание. Просьба не заливать файлы, защищенные авторскими правами, а также файлы нелегального содержания!
cron