Mother-Daughter Exchange Club 27 / Клуб обмена дочки-матери 27 (Girlfriends Films) [2013 г., All Girl, Lesbian, Mature, MILF, DVDRip-AVC] (Rayveness, India Summer, Zoe Holloway, Tanya Tate, Kelly Surfer, Jenna J. Ross, Veruca James, Prinzess)

 Статистика раздачи 
Размер: 1.22 ГБ   |  Зарегистрирован: 04 сен 2015, 20:24   |   .torrent скачан: 2 раз
Сидеров: 135  [ 0 байт/сек ]     Личеров: 0  [ 0 байт/сек ]  
  
В сети
Аватара пользователя
Раздал: 159.1 ГБ
Скачал: 62.65 ГБ
Ратио: 2.539
Сообщения: 354180
Зарегистрирован: 27 июл 2015, 20:38

Mother-Daughter Exchange Club 27 / Клуб обмена дочки-матери 27 (Girlfriends Films) [2013 г., All Girl, Lesbian, Mature, MILF, DVDRip-AVC] (Rayveness, India Summer, Zoe Holloway, Tanya Tate, Kelly Surfer, Jenna J. Ross, Veruca James, Prinzess)

Сообщение MalonE » 25 май 2013, 06:57

Mother-Daughter Exchange Club 27 / Клуб обмена дочки-матери 27-Год производства: 2013 г.
Страна: USA
Жанр: All Girl, Lesbian, Mature, MILF
Продолжительность: 01:55:47
Студия: Girlfriends Films
Язык: Английский
В ролях: Rayveness, India Summer, Zoe Holloway, Tanya Tate, Kelly Surfer, Jenna J. Ross, Veruca James, Prinzess, Staci Silverstone
Описание: Simply the most realistic sex in lesbian adult video!
Moms and their daughters mix with other romance minded mom-daughter pairs when they join wwww.motherdaughterexchangeclub.net. Be sure to visit the site often and if you're a mom and daughter, join today.
Доп. информация: http://www.adultdvdempire.com/1647610/mother-daught...porn-movies.html
Релиз группы: UPPERCUT
Качество видео: DVDRip-AVC
Формат видео: MP4
Видео кодек: H.264/AVC
Аудио кодек: AAC
Видео: 720x404 (1.78:1), 29.970 fps, ~1292 kbps avg @ crf 19, 0.148 bit/pixel
Аудио: 48 kHz, 2 ch, ~221 kbps
MediaInfo
Код:
Код: Выделить всё
Общее
Полное имя                               : Mother.Daughter.Exchange.Club.27.XXX.DVDRip.x264-UPPERCUT.mp4
Формат                                   : MPEG-4
Профиль формата                          : Base Media
Идентификатор кодека                     : isom
Размер файла                             : 1,22 Гбайт
Продолжительность                        : 1 ч. 55 м.
Режим общего битрейта                    : Переменный
Общий поток                              : 1507 Кбит/сек
Дата кодирования                         : UTC 2013-05-18 19:22:18
Дата пометки                             : UTC 2013-05-18 19:22:18
Видео
Идентификатор                            : 1
Формат                                   : AVC
Формат/Информация                        : Advanced Video Codec
Профиль формата                          : [email protected]
Параметр CABAC формата                   : Да
Параметр ReFrames формата                : 5 кадров
Идентификатор кодека                     : avc1
Идентификатор кодека/Информация          : Advanced Video Coding
Продолжительность                        : 1 ч. 55 м.
Битрейт                                  : 1292 Кбит/сек
Максимальный битрейт                     : 4174 Кбит/сек
Ширина                                   : 720 пикселей
Высота                                   : 404 пикселя
Соотношение сторон                       : 16:9
Режим частоты кадров                     : Постоянный
Частота кадров                           : 29,970 кадров/сек
Цветовое пространство                    : YUV
Субдискретизация насыщенности            : 4:2:0
Битовая глубина                          : 8 бит
Тип развёртки                            : Прогрессивная
Бит/(Пиксели*Кадры)                      : 0.148
Размер потока                            : 1,05 Гбайт (86%)
Библиотека кодирования                   : x264 core 132 r2309 3b1f1f7
Настройки программы                      : cabac=1 / ref=5 / deblock=1:0:0 / analyse=0x3:0x113 / me=umh / subme=8 / psy=1 / psy_rd=1.00:0.00 / mixed_ref=1 / me_range=16 / chroma_me=1 / trellis=1 / 8x8dct=1 / cqm=0 / deadzone=21,11 / fast_pskip=0 / chroma_qp_offset=-2 / threads=6 / lookahead_threads=1 / sliced_threads=0 / nr=0 / decimate=1 / interlaced=0 / bluray_compat=0 / constrained_intra=0 / bframes=3 / b_pyramid=2 / b_adapt=2 / b_bias=0 / direct=3 / weightb=1 / open_gop=0 / weightp=2 / keyint=300 / keyint_min=29 / scenecut=40 / intra_refresh=0 / rc_lookahead=50 / rc=crf / mbtree=1 / crf=19.0 / qcomp=0.60 / qpmin=0 / qpmax=69 / qpstep=4 / ip_ratio=1.40 / aq=1:1.00
Дата кодирования                         : UTC 2013-05-18 19:22:18
Дата пометки                             : UTC 2013-05-18 19:25:24
Аудио
Идентификатор                            : 2
Формат                                   : AAC
Формат/Информация                        : Advanced Audio Codec
Профиль формата                          : LC
Идентификатор кодека                     : 40
Продолжительность                        : 1 ч. 55 м.
Вид битрейта                             : Переменный
Битрейт                                  : 211 Кбит/сек
Максимальный битрейт                     : 247 Кбит/сек
Каналы                                   : 2 канала
Расположение каналов                     : Front: L R
Частота                                  : 48,0 КГц
Метод сжатия                             : С потерями
Размер потока                            : 174 Мбайт (14%)
Дата кодирования                         : UTC 2013-05-18 19:25:16
Дата пометки                             : UTC 2013-05-18 19:25:24

Скринлист
Скриншоты








 
   
Торрент:
Зарегистрирован [04 сен 2015, 20:24]
Скачать торрент Магнет ссылка
Скачать торрент
[ Размер 12.62 КБ / Просмотров 23 ]
Статус:
Проверен
 
.torrent скачан: 2 раз
Хэш: 2483a32dacf1e3caae8c2245e701a602a2bff588
Размер: 1.22 ГБ (1 309 113 637 байт)
Стать Автором раздачи
 

  • Похожие торренты
    Ответы
    Просмотры
    Последнее сообщение

Вернуться в Лесбо-фильмы / All Girl & Solo

Кто сейчас на конференции

Сейчас эту тему просматривают: нет зарегистрированных пользователей и гости: 1


Ресурс не предоставляет электронные версии произведений, а занимается лишь коллекционированием и каталогизацией ссылок, присылаемых и публикуемых на форуме нашими читателями. Если вы являетесь правообладателем какого-либо представленного материала и не желаете чтобы ссылка на него находилась в нашем каталоге, свяжитесь с нами и мы незамедлительно удалим её. Файлы для обмена на трекере предоставлены пользователями сайта, и администрация не несёт ответственности за их содержание. Просьба не заливать файлы, защищенные авторскими правами, а также файлы нелегального содержания!
cron