Lesbian Love Stories 2: Chance Encounters / Lesbian Love Stories 2: Chance Encounters (Girlfriends Films) [2013 г., All Girl, Girl-Girl, Lesbian, All Sex, DVDRip-AVC]

 Статистика раздачи 
Размер: 1.1 ГБ   |  Зарегистрирован: 04 сен 2015, 20:08   |   .torrent скачан: 0 раз
Сидеров: 3  [ 0 байт/сек ]     Личеров: 0  [ 0 байт/сек ]  
  
В сети
Аватара пользователя
Раздал: 159.1 ГБ
Скачал: 62.65 ГБ
Ратио: 2.539
Сообщения: 354180
Зарегистрирован: 27 июл 2015, 20:38

Lesbian Love Stories 2: Chance Encounters / Lesbian Love Stories 2: Chance Encounters (Girlfriends Films) [2013 г., All Girl, Girl-Girl, Lesbian, All Sex, DVDRip-AVC]

Сообщение MalonE » 09 июн 2013, 11:44

Lesbian Love Stories 2: Chance Encounters / Lesbian Love Stories 2: Chance Encounters-
Год производства: 2013 г.
Страна: USA
Жанр: All Girl, Girl-Girl, Lesbian, All Sex
Продолжительность: 02:39:26
Студия: Girlfriends Films
Язык: Английский
В ролях: Penny Pax, Capri Anderson, Veruca James, Natalie Heart, Sheena Ryder, Natalia Starr, Teal Conrad, Natasha Starr
Описание: With a chance encounter, lesbians fall in love!
Доп. информация: http://www.adultdvdempire.com/1654673/lesbian-love-...porn-movies.html
Релиз группы: CHiKANi
Качество видео: DVDRip-AVC
Формат видео: MP4
Видео кодек: H.264/AVC
Аудио кодек: AAC
Видео: : 672x378 (1.78:1), 29.970 fps, ~988 kbps avg @ crf 20, 0.146 bit/pixel
Аудио: 48 kHz, 2 ch, ~96 kbps
MediaInfo
Код:
Код: Выделить всё
Общее
Полное имя                               : Lesbian.Love.Stories.2.XXX.DVDRip.x264-CHiKANi.mp4
Формат                                   : MPEG-4
Профиль формата                          : Base Media
Идентификатор кодека                     : isom
Размер файла                             : 1,10 Гбайт
Продолжительность                        : 2 ч. 39 м.
Режим общего битрейта                    : Переменный
Общий поток                              : 988 Кбит/сек
Дата кодирования                         : UTC 2013-06-08 18:46:13
Дата пометки                             : UTC 2013-06-08 18:46:13
Видео
Идентификатор                            : 1
Формат                                   : AVC
Формат/Информация                        : Advanced Video Codec
Профиль формата                          : [email protected]
Параметр CABAC формата                   : Да
Параметр ReFrames формата                : 5 кадров
Идентификатор кодека                     : avc1
Идентификатор кодека/Информация          : Advanced Video Coding
Продолжительность                        : 2 ч. 39 м.
Битрейт                                  : 888 Кбит/сек
Максимальный битрейт                     : 4604 Кбит/сек
Ширина                                   : 672 пикселя
Высота                                   : 378 пикселей
Соотношение сторон                       : 16:9
Режим частоты кадров                     : Постоянный
Частота кадров                           : 23,976 кадра/сек
Цветовое пространство                    : YUV
Субдискретизация насыщенности            : 4:2:0
Битовая глубина                          : 8 бит
Тип развёртки                            : Прогрессивная
Бит/(Пиксели*Кадры)                      : 0.146
Размер потока                            : 1013 Мбайт (90%)
Библиотека кодирования                   : x264 core 133 r2334 a3ac64b
Настройки программы                      : cabac=1 / ref=5 / deblock=1:-1:-1 / analyse=0x3:0x133 / me=umh / subme=8 / psy=1 / psy_rd=1.00:0.15 / mixed_ref=1 / me_range=16 / chroma_me=1 / trellis=1 / 8x8dct=1 / cqm=0 / deadzone=21,11 / fast_pskip=0 / chroma_qp_offset=-3 / threads=12 / lookahead_threads=2 / sliced_threads=0 / nr=0 / decimate=1 / interlaced=0 / bluray_compat=0 / constrained_intra=0 / bframes=3 / b_pyramid=2 / b_adapt=2 / b_bias=0 / direct=3 / weightb=1 / open_gop=0 / weightp=2 / keyint=240 / keyint_min=23 / scenecut=40 / intra_refresh=0 / rc_lookahead=50 / rc=crf / mbtree=1 / crf=20.0 / qcomp=0.60 / qpmin=0 / qpmax=69 / qpstep=4 / vbv_maxrate=17500 / vbv_bufsize=17500 / crf_max=0.0 / nal_hrd=none / ip_ratio=1.40 / aq=1:1.00
Дата кодирования                         : UTC 2013-06-08 18:14:42
Дата пометки                             : UTC 2013-06-08 18:49:49
Аудио
Идентификатор                            : 2
Формат                                   : AAC
Формат/Информация                        : Advanced Audio Codec
Профиль формата                          : LC
Идентификатор кодека                     : 40
Продолжительность                        : 2 ч. 39 м.
Вид битрейта                             : Переменный
Битрейт                                  : 96,0 Кбит/сек
Максимальный битрейт                     : 119 Кбит/сек
Каналы                                   : 2 канала
Расположение каналов                     : Front: L R
Частота                                  : 48,0 КГц
Метод сжатия                             : С потерями
Задержка видео                           : 83 мс.
Размер потока                            : 109 Мбайт (10%)
Язык                                     : English
Дата кодирования                         : UTC 2013-06-08 18:06:09
Дата пометки                             : UTC 2013-06-08 18:49:49

Скринлист
Скриншоты
 
   
Торрент:
Зарегистрирован [04 сен 2015, 20:08]
Скачать торрент Магнет ссылка
Скачать торрент
[ Размер 11.42 КБ / Просмотров 6 ]
Статус:
Проверен
 
.torrent скачан: 0 раз
Хэш: 988ac316f697ce0b71188cfb44afba6da8382a9c
Размер: 1.1 ГБ (1 181 812 902 байт)
Стать Автором раздачи
 

Вернуться в Лесбо-фильмы / All Girl & Solo

Кто сейчас на конференции

Сейчас эту тему просматривают: нет зарегистрированных пользователей и гости: 1


Ресурс не предоставляет электронные версии произведений, а занимается лишь коллекционированием и каталогизацией ссылок, присылаемых и публикуемых на форуме нашими читателями. Если вы являетесь правообладателем какого-либо представленного материала и не желаете чтобы ссылка на него находилась в нашем каталоге, свяжитесь с нами и мы незамедлительно удалим её. Файлы для обмена на трекере предоставлены пользователями сайта, и администрация не несёт ответственности за их содержание. Просьба не заливать файлы, защищенные авторскими правами, а также файлы нелегального содержания!
cron