Lesbian PsychoDramas 13 / Лесбийские психодрамы 13 (Girlfriends Films) [2013 г., All Girl, Girl-Girl, Lesbian, All Sex, DVDRip-AVC] (Raylene, Allie Haze, Keira Kelly, Randy Moore, Sovereign Syre, Mia Gold, Jennifer Best)

 Статистика раздачи 
Размер: 1 ГБ   |  Зарегистрирован: 04 сен 2015, 20:08   |   .torrent скачан: 43 раз
Сидеров: 6  [ 0 байт/сек ]     Личеров: 2  [ 0 байт/сек ]  
  
Аватара пользователя
Раздал: 159.1 ГБ
Скачал: 62.65 ГБ
Ратио: 2.539
Сообщения: 354180
Зарегистрирован: 27 июл 2015, 20:38

Lesbian PsychoDramas 13 / Лесбийские психодрамы 13 (Girlfriends Films) [2013 г., All Girl, Girl-Girl, Lesbian, All Sex, DVDRip-AVC] (Raylene, Allie Haze, Keira Kelly, Randy Moore, Sovereign Syre, Mia Gold, Jennifer Best)

Сообщение MalonE » 09 июн 2013, 11:45

Lesbian PsychoDramas 13 / Лесбийские психодрамы 13-
Год производства: 2013 г.
Страна: USA
Жанр: All Girl, Girl-Girl, Lesbian, All Sex
Продолжительность: 02:45:15
Студия: Girlfriends Films
Язык: Английский
В ролях: Raylene, Allie Haze, Keira Kelly, Randy Moore, Sovereign Syre, Mia Gold, Jennifer Best
Описание: Drama to the highest degree!
Доп. информация: http://www.adultdvdempire.com/1654620/lesbian-psych...porn-movies.html
Релиз группы: CHiKANi
Качество видео: DVDRip-AVC
Формат видео: MP4
Видео кодек: H.264/AVC
Аудио кодек: AAC
Видео: 672x378(1.78:1), 29.970 fps, ~768 kbps avg @ crf 20, 0.101 bit/pixel
Аудио: 48 kHz, 2 ch, ~96 kbps
MediaInfo
Код:
Код: Выделить всё
Общее
Полное имя                               : Lesbian.Psychodramas.13.XXX.DVDRip.x264-CHiKANi.mp4
Формат                                   : MPEG-4
Профиль формата                          : Base Media
Идентификатор кодека                     : isom
Размер файла                             : 1,00 Гбайт
Продолжительность                        : 2 ч. 45 м.
Режим общего битрейта                    : Переменный
Общий поток                              : 869 Кбит/сек
Дата кодирования                         : UTC 2013-06-08 19:28:29
Дата пометки                             : UTC 2013-06-08 19:28:29
Видео
Идентификатор                            : 1
Формат                                   : AVC
Формат/Информация                        : Advanced Video Codec
Профиль формата                          : [email protected]
Параметр CABAC формата                   : Да
Параметр ReFrames формата                : 5 кадров
Идентификатор кодека                     : avc1
Идентификатор кодека/Информация          : Advanced Video Coding
Продолжительность                        : 2 ч. 45 м.
Битрейт                                  : 768 Кбит/сек
Максимальный битрейт                     : 4677 Кбит/сек
Ширина                                   : 672 пикселя
Высота                                   : 378 пикселей
Соотношение сторон                       : 16:9
Режим частоты кадров                     : Постоянный
Частота кадров                           : 29,970 кадров/сек
Цветовое пространство                    : YUV
Субдискретизация насыщенности            : 4:2:0
Битовая глубина                          : 8 бит
Тип развёртки                            : Прогрессивная
Бит/(Пиксели*Кадры)                      : 0.101
Размер потока                            : 908 Мбайт (88%)
Библиотека кодирования                   : x264 core 133 r2334 a3ac64b
Настройки программы                      : cabac=1 / ref=5 / deblock=1:-1:-1 / analyse=0x3:0x133 / me=umh / subme=8 / psy=1 / psy_rd=1.00:0.15 / mixed_ref=1 / me_range=16 / chroma_me=1 / trellis=1 / 8x8dct=1 / cqm=0 / deadzone=21,11 / fast_pskip=0 / chroma_qp_offset=-3 / threads=12 / lookahead_threads=2 / sliced_threads=0 / nr=0 / decimate=1 / interlaced=0 / bluray_compat=0 / constrained_intra=0 / bframes=3 / b_pyramid=2 / b_adapt=2 / b_bias=0 / direct=3 / weightb=1 / open_gop=0 / weightp=2 / keyint=300 / keyint_min=29 / scenecut=40 / intra_refresh=0 / rc_lookahead=50 / rc=crf / mbtree=1 / crf=20.0 / qcomp=0.60 / qpmin=0 / qpmax=69 / qpstep=4 / vbv_maxrate=17500 / vbv_bufsize=17500 / crf_max=0.0 / nal_hrd=none / ip_ratio=1.40 / aq=1:1.00
Дата кодирования                         : UTC 2013-06-08 18:54:46
Дата пометки                             : UTC 2013-06-08 19:29:33
Аудио
Идентификатор                            : 2
Формат                                   : AAC
Формат/Информация                        : Advanced Audio Codec
Профиль формата                          : LC
Идентификатор кодека                     : 40
Продолжительность                        : 2 ч. 45 м.
Вид битрейта                             : Переменный
Битрейт                                  : 96,0 Кбит/сек
Максимальный битрейт                     : 124 Кбит/сек
Каналы                                   : 2 канала
Расположение каналов                     : Front: L R
Частота                                  : 48,0 КГц
Метод сжатия                             : С потерями
Задержка видео                           : 67 мс.
Размер потока                            : 113 Мбайт (11%)
Язык                                     : English
Дата кодирования                         : UTC 2013-06-08 18:09:09
Дата пометки                             : UTC 2013-06-08 19:29:33

Скринлист
Скриншоты
 
   
Торрент:
Зарегистрирован [04 сен 2015, 20:08]
Скачать торрент Магнет ссылка
Скачать торрент
[ Размер 10.44 КБ / Просмотров 10 ]
Статус:
Проверен
 
.torrent скачан: 43 раз
Хэш: a92bbe54fff3253ea23c7f3776236f7d72cebf37
Размер: 1 ГБ (1 076 781 861 байт)
Стать Автором раздачи
 

  • Похожие торренты
    Ответы
    Просмотры
    Последнее сообщение

Вернуться в Лесбо-фильмы / All Girl & Solo

Кто сейчас на конференции

Сейчас эту тему просматривают: нет зарегистрированных пользователей и гости: 1


Ресурс не предоставляет электронные версии произведений, а занимается лишь коллекционированием и каталогизацией ссылок, присылаемых и публикуемых на форуме нашими читателями. Если вы являетесь правообладателем какого-либо представленного материала и не желаете чтобы ссылка на него находилась в нашем каталоге, свяжитесь с нами и мы незамедлительно удалим её. Файлы для обмена на трекере предоставлены пользователями сайта, и администрация не несёт ответственности за их содержание. Просьба не заливать файлы, защищенные авторскими правами, а также файлы нелегального содержания!
cron