Jack Attack / Джек наступает (Robby D, Digital Playground) [2013 г., Gonzo, DVDRip-AVC] (Riley Steele, Bridgette B., Christy Mack, Rikki Six, Natalia Starr)

 Статистика раздачи 
Размер: 1.84 ГБ   |  Зарегистрирован: 04 сен 2015, 20:05   |   .torrent скачан: 0 раз
Сидеров: 1  [ 0 байт/сек ]     Личеров: 0  [ 0 байт/сек ]  
  
Аватара пользователя
Раздал: 150.47 ГБ
Скачал: 49.77 ГБ
Ратио: 3.023
Сообщения: 349587
Зарегистрирован: 27 июл 2015, 20:38

Jack Attack / Джек наступает (Robby D, Digital Playground) [2013 г., Gonzo, DVDRip-AVC] (Riley Steele, Bridgette B., Christy Mack, Rikki Six, Natalia Starr)

Сообщение MalonE » 12 июн 2013, 06:49

Jack Attack / Джек наступает-
Год производства: 2013 г.
Страна: USA
Жанр: Gonzo
Продолжительность: 02:34:46
Режиссер: Robby D
Студия: Digital Playground
Язык: Английский
В ролях: Riley Steele, Bridgette B., Christy Mack, Rikki Six, Natalia Starr
Описание: Jack's back!
These girls will do anything once a camera is on them!
Доп. информация: http://www.adultdvdempire.com/1657189/jack-attack-d...porn-movies.html
Релиз группы: XCiTE
Качество видео: DVDRip-AVC
Формат видео: MP4
Видео кодек: H.264/AVC
Аудио кодек: AAC
Видео: 720x400 (1.80:1), 23.976 fps, ~1646 kbps avg @ crf 19, 0.238 bit/pixel
Аудио: 48 kHz, 2 ch, ~48 kbps
MediaInfo
Код:
Код: Выделить всё
Общее
Полное имя                               : Jack.Attack.XXX.DVDRip.x264-XCiTE.mp4
Формат                                   : MPEG-4
Профиль формата                          : Base Media
Идентификатор кодека                     : isom
Размер файла                             : 1,84 Гбайт
Продолжительность                        : 2 ч. 34 м.
Режим общего битрейта                    : Переменный
Общий поток                              : 1698 Кбит/сек
Дата кодирования                         : UTC 2013-06-11 21:14:55
Дата пометки                             : UTC 2013-06-11 21:14:55
Видео
Идентификатор                            : 1
Формат                                   : AVC
Формат/Информация                        : Advanced Video Codec
Профиль формата                          : High@L3.1
Параметр CABAC формата                   : Да
Параметр ReFrames формата                : 5 кадров
Идентификатор кодека                     : avc1
Идентификатор кодека/Информация          : Advanced Video Coding
Продолжительность                        : 2 ч. 34 м.
Битрейт                                  : 1646 Кбит/сек
Максимальный битрейт                     : 6176 Кбит/сек
Ширина                                   : 720 пикселей
Высота                                   : 400 пикселей
Соотношение сторон                       : 16:9
Режим частоты кадров                     : Постоянный
Частота кадров                           : 23,976 кадра/сек
Цветовое пространство                    : YUV
Субдискретизация насыщенности            : 4:2:0
Битовая глубина                          : 8 бит
Тип развёртки                            : Прогрессивная
Бит/(Пиксели*Кадры)                      : 0.238
Размер потока                            : 1,78 Гбайт (97%)
Библиотека кодирования                   : x264 core 133 r2334 a3ac64b
Настройки программы                      : cabac=1 / ref=5 / deblock=1:0:0 / analyse=0x3:0x113 / me=umh / subme=8 / psy=1 / psy_rd=1.00:0.00 / mixed_ref=1 / me_range=16 / chroma_me=1 / trellis=1 / 8x8dct=1 / cqm=0 / deadzone=21,11 / fast_pskip=0 / chroma_qp_offset=-2 / threads=12 / lookahead_threads=2 / sliced_threads=0 / nr=0 / decimate=1 / interlaced=0 / bluray_compat=0 / constrained_intra=0 / bframes=3 / b_pyramid=2 / b_adapt=2 / b_bias=0 / direct=3 / weightb=1 / open_gop=0 / weightp=2 / keyint=240 / keyint_min=23 / scenecut=40 / intra_refresh=0 / rc_lookahead=50 / rc=crf / mbtree=1 / crf=19.0 / qcomp=0.60 / qpmin=0 / qpmax=69 / qpstep=4 / ip_ratio=1.40 / aq=1:1.00
Дата кодирования                         : UTC 2013-06-11 20:05:29
Дата пометки                             : UTC 2013-06-11 21:18:19
Аудио
Идентификатор                            : 2
Формат                                   : AAC
Формат/Информация                        : Advanced Audio Codec
Профиль формата                          : LC
Идентификатор кодека                     : 40
Продолжительность                        : 2 ч. 34 м.
Вид битрейта                             : Переменный
Битрейт                                  : 48,0 Кбит/сек
Максимальный битрейт                     : 61,4 Кбит/сек
Каналы                                   : 2 канала
Расположение каналов                     : Front: L R
Частота                                  : 48,0 КГц
Метод сжатия                             : С потерями
Задержка видео                           : 83 мс.
Размер потока                            : 53,1 Мбайт (3%)
Дата кодирования                         : UTC 2013-06-11 21:04:47
Дата пометки                             : UTC 2013-06-11 21:18:19

Скринлист
Скриншоты














 
   
Торрент:
Зарегистрирован [04 сен 2015, 20:05]
Скачать торрент Магнет ссылка
Скачать торрент
[ Размер 18.77 КБ / Просмотров 1 ]
Статус:
Проверен
 
.torrent скачан: 0 раз
Хэш: 9a6e4259a9579444682b45d77d40bbadc10c4794
Размер: 1.84 ГБ (1 971 333 125 байт)
 

Вернуться в Гонзо-фильмы / Gonzo

Кто сейчас на конференции

Сейчас эту тему просматривают: нет зарегистрированных пользователей и гости: 1


Ресурс не предоставляет электронные версии произведений, а занимается лишь коллекционированием и каталогизацией ссылок, присылаемых и публикуемых на форуме нашими читателями. Если вы являетесь правообладателем какого-либо представленного материала и не желаете чтобы ссылка на него находилась в нашем каталоге, свяжитесь с нами и мы незамедлительно удалим её. Файлы для обмена на трекере предоставлены пользователями сайта, и администрация не несёт ответственности за их содержание. Просьба не заливать файлы, защищенные авторскими правами, а также файлы нелегального содержания!
cron