Obscene Behavior 3 / Непристойное поведение 3 (John Strong, Red Light Disctrict) [2007 г., Gonzo, Rimming, Asslicking, Oral, Toe Sucking, Anal, Hardcore, DVDRip]

 Статистика раздачи 
Размер: 1.36 ГБ   |  Зарегистрирован: 05 сен 2015, 02:36   |   .torrent скачан: 0 раз
Сидеров: 3  [ 0 байт/сек ]     Личеров: 0  [ 0 байт/сек ]  
  
Аватара пользователя
Раздал: 130.41 ГБ
Скачал: 45.05 ГБ
Ратио: 2.895
Сообщения: 349589
Зарегистрирован: 27 июл 2015, 20:38

Obscene Behavior 3 / Непристойное поведение 3 (John Strong, Red Light Disctrict) [2007 г., Gonzo, Rimming, Asslicking, Oral, Toe Sucking, Anal, Hardcore, DVDRip]

Сообщение MalonE » 10 мар 2013, 12:42

Obscene Behavior #3 / Непристойное поведение №3
#77Год производства: 2007
Страна: U.S.A.
Жанр: Gonzo, Rimming \ Asslicking, Oral, Toe Sucking, Anal, Hardcore
Продолжительность: 02:50:00
Язык: Английский
Режиссер: John Strong
Студия: Red Light Disctrict
В ролях: John Strong, Steve French, James Deen, Mr. Pete, Mark Wood, Sascha
Bailey Brooks, Denice K, Carmen Minor, Aarielle Alexus, Bianca Dagger
Описание:
Описания на обложке нет. Поэтому скажу своиими словами. Если вам нравятся фильме, где женщины вылизывают парням задний проход и не только, и при этом, в сценах присутствует энергичный жесткий секс - этот фильм для вас. В большинстве американских фильмах, снятых крупными мощными компаниями, есть один важный недостаток - отвратительные модели. Этот фильм свободен от этого недостатка. здесь вас ждут аппетитные и привлекательные девушки, совершающие ну очень грязные и непристойные поступки. Что касается качества и постановки - то здесь все отлично. Как никак видео снималось мастером своего дела, и в то же время простым русским пареньком-эмигрантом из России - Джоном "сильным" Стронгом.
Доп. информация:
* Scene 1. Bailey Brooks [Facial Swallow Rimming], John Strong, Steven French
* Scene 2. Denise K [Anal Facial Swallow Rimming A2M], James Deen
* Scene 3. Carmen Minor [Anal Rimming Facial], John Strong
* Scene 4. Aarielle Alexis [Anal Facial Rimming DP A2M IR], John Strong, Mr. Pete
* Scene 5. Bianca Dagger [Rimming Facial Swallow], Mark Wood, Sascha
Другие части серии, присутствующие на трекере. У последних двух я починил обложку и скринлист.
Obscene Behavior #2
Obscene Behavior #4
Obscene Behavior #5
Тех данные
General
Format : AVI
Format/Info : Audio Video Interleave
File size : 1.36 GiB
Duration : 2h 50mn
Overall bit rate : 1 144 Kbps
Writing application : VirtualDubMod 1.5.10.3 | www.virtualdub-fr.org || (build 2550/release)
Writing library : VirtualDubMod build 2550/release
Video
ID : 0
Format : MPEG-4 Visual
Format profile : [email protected]
Format settings, BVOP : Yes
Format settings, QPel : No
Format settings, GMC : No warppoints
Format settings, Matrix : Default (H.263)
Codec ID : XVID
Codec ID/Hint : XviD
Duration : 2h 50mn
Bit rate : 1 003 Kbps
Width : 448 pixels
Height : 336 pixels
Display aspect ratio : 4:3
Frame rate : 29.970 fps
Resolution : 24 bits
Colorimetry : 4:2:0
Scan type : Progressive
Bits/(Pixel*Frame) : 0.222
Stream size : 1.19 GiB (88%)
Writing library : XviD 1.0.3 (UTC 2004-12-20)
Audio
ID : 1
Format : MPEG Audio
Format version : Version 1
Format profile : Layer 3
Format_Settings_Mode : Joint stereo / MS Stereo
Codec ID : 55
Codec ID/Hint : MP3
Duration : 2h 49mn
Bit rate mode : Variable
Bit rate : 128 Kbps
Channel(s) : 2 channels
Sampling rate : 48.0 KHz
Resolution : 16 bits
Stream size : 154 MiB (11%)
Alignment : Aligned on interleaves
Interleave, duration : 24 ms (0.72 video frame)
Interleave, preload duration : 511 ms
Качество видео: DVDRip
Формат видео: AVI
Видео кодек: XviD
Аудио кодек: MP3
Видео: 448*336; 003 Kbps; 4:3; 29.970 fps; 24 bits
Аудио: MP3; 128 Kbps; 2 channels; 48.0 KHz; 16 bits
Скриншоты
Альтернативные
Venue

Bam
Обложка
Venue

Bam
 
   
Торрент:
Зарегистрирован [05 сен 2015, 02:36]
Скачать торрент Магнет ссылка
Скачать торрент
[ Размер 13.97 КБ / Просмотров 0 ]
Статус:
Проверен
 
.torrent скачан: 0 раз
Хэш: 3663acd241a076109fdbf01648c8b05058e680d6
Размер: 1.36 ГБ (1 458 348 032 байт)
 

Вернуться в Гонзо-фильмы / Gonzo

Кто сейчас на конференции

Сейчас эту тему просматривают: нет зарегистрированных пользователей и гости: 1


Ресурс не предоставляет электронные версии произведений, а занимается лишь коллекционированием и каталогизацией ссылок, присылаемых и публикуемых на форуме нашими читателями. Если вы являетесь правообладателем какого-либо представленного материала и не желаете чтобы ссылка на него находилась в нашем каталоге, свяжитесь с нами и мы незамедлительно удалим её. Файлы для обмена на трекере предоставлены пользователями сайта, и администрация не несёт ответственности за их содержание. Просьба не заливать файлы, защищенные авторскими правами, а также файлы нелегального содержания!
cron