Royal Ass Force / Королевские жопные силы (Ben Dover, VCA) [1996 г., Anal, Double Penetration, Hardcore, All Sex, DVDRip]

 Статистика раздачи 
Размер: 1.35 ГБ   |  Зарегистрирован: 05 сен 2015, 02:34   |   .torrent скачан: 1 раз
Сидеров: 3  [ 0 байт/сек ]     Личеров: 1  [ 0 байт/сек ]  
  
Аватара пользователя
Раздал: 130.41 ГБ
Скачал: 45.05 ГБ
Ратио: 2.895
Сообщения: 349589
Зарегистрирован: 27 июл 2015, 20:38

Royal Ass Force / Королевские жопные силы (Ben Dover, VCA) [1996 г., Anal, Double Penetration, Hardcore, All Sex, DVDRip]

Сообщение MalonE » 10 мар 2013, 15:09

Royal Ass Force / Королевские жопные силы -Год производства: 1996 г.
Страна: Британия
Жанр: Anal, Double Penetration, Hardcore, All Sex
Продолжительность: 01:55:59
Язык: Английский
Режиссер: Ben Dover
Студия: VCA
В ролях: Mary, Mandy, Nici Sterling, Sue, Danni, Super Mario, Ian.
Описание: In this latest lewd installment, Ben comes together again with Mary, the eighteen-year-old Irish lass who, on this randy reunion, introduces big Ben Dover and his two buddies to mouth-watering Mandy, another eighteen-year-old temptress. Together the gorgeous girlies provide plenty of filthy fun for the lads' entertainment, including ass-pumping galore and a dynamic double penetration!
Next on Ben's perving agenda is beautiful Brit Nici Sterling, possible Ben's greatest discovery to date. She meets once again with big Ben and generously permits him to film her getting screwed and concludes an outrageous afternoon by sucking him off.
Next is Sue, a leggy blonde who's just won a pin-up competition. And to celebrate her good fortune, sexy Sue gives Ben's big dick a right good sucking and takes up every last drop of his cum!
And last but not least is dirty Danni, another of Ben's carnal conquests. The twenty-year-old blue-eyed blonde adores group sex, and isn't scared of experimenting practically everything. Of course, Ben and his three buddies give her it all, and capture every spunktastic moment for you!
Качество видео: DVDRip
Формат видео: MP4
Видео кодек: H.264/AVC
Аудио кодек: AAC
Видео: MPEG4 Video (H264) 720x540 25.00fps
Аудио: AAC 48000Hz stereo 1536kbps
подробные тех.данные
Format : MPEG-4
Format profile : Base Media
Codec ID : isom
File size : 1.35 GiB
Duration : 1h 55mn
Overall bit rate : 1 665 Kbps
Movie name : royal.mp4
Performer : Avidemux
Writing application : Lavf52.61.0
Video
ID : 1
Format : AVC
Format/Info : Advanced Video Codec
Format profile : [email protected]
Format settings, CABAC : Yes
Format settings, ReFrames : 4 frames
Codec ID : avc1
Codec ID/Info : Advanced Video Coding
Duration : 1h 55mn
Bit rate mode : Variable
Bit rate : 1 500 Kbps
Width : 720 pixels
Height : 540 pixels
Display aspect ratio : 4:3
Frame rate mode : Constant
Frame rate : 25.000 fps
Color space : YUV
Chroma subsampling : 4:2:0
Bit depth : 8 bits
Scan type : Progressive
Bits/(Pixel*Frame) : 0.154
Stream size : 1.21 GiB (90%)
Writing library : x264 core 93 r1542 5b86182
Encoding settings : cabac=1 / ref=3 / deblock=1:0:0 / analyse=0x3:0x113 / me=hex / subme=7 / psy=1 / psy_rd=1.00:0.00 / mixed_ref=1 / me_range=16 / chroma_me=1 / trellis=1 / 8x8dct=1 / cqm=0 / deadzone=21,11 / fast_pskip=1 / chroma_qp_offset=-2 / threads=1 / sliced_threads=0 / nr=0 / decimate=1 / interlaced=0 / constrained_intra=0 / bframes=3 / b_pyramid=2 / b_adapt=1 / b_bias=0 / direct=1 / wpredb=1 / wpredp=2 / keyint=250 / keyint_min=25 / scenecut=40 / intra_refresh=0 / rc_lookahead=40 / rc=abr / mbtree=1 / bitrate=1500 / ratetol=1.0 / qcomp=0.60 / qpmin=10 / qpmax=51 / qpstep=4 / ip_ratio=1.40 / aq=1:1.00
Audio
ID : 2
Format : AAC
Format/Info : Advanced Audio Codec
Format version : Version 4
Format profile : LC
Format settings, SBR : No
Codec ID : 40
Duration : 1h 55mn
Bit rate mode : Variable
Bit rate : 160 Kbps
Channel(s) : 2 channels
Channel positions : Front: L R
Sampling rate : 48.0 KHz
Stream size : 133 MiB (10%)
Скриншоты
Не забываем говорить спасибо - вам не сложно, а мне приятно!
 
   
Торрент:
Зарегистрирован [05 сен 2015, 02:34]
Скачать торрент Магнет ссылка
Скачать торрент
[ Размер 13.87 КБ / Просмотров 1 ]
Статус:
Проверен
 
.torrent скачан: 1 раз
Хэш: 2910054d01c456a6367964a6df7c2fd502d41b8a
Размер: 1.35 ГБ (1 448 640 990 байт)
 

Вернуться в Гонзо-фильмы / Gonzo

Кто сейчас на конференции

Сейчас эту тему просматривают: нет зарегистрированных пользователей и гости: 1


Ресурс не предоставляет электронные версии произведений, а занимается лишь коллекционированием и каталогизацией ссылок, присылаемых и публикуемых на форуме нашими читателями. Если вы являетесь правообладателем какого-либо представленного материала и не желаете чтобы ссылка на него находилась в нашем каталоге, свяжитесь с нами и мы незамедлительно удалим её. Файлы для обмена на трекере предоставлены пользователями сайта, и администрация не несёт ответственности за их содержание. Просьба не заливать файлы, защищенные авторскими правами, а также файлы нелегального содержания!
cron