Double Play 2 / Двойная игра 2 (Mark Ashley, Digital Sin) [2007 г., Gonzo, Anal, Oral, Squirt, Interracial, DVDRip, (scenes split)]

 Статистика раздачи 
Размер: 901.32 МБ   |  Зарегистрирован: 05 сен 2015, 02:33   |   .torrent скачан: 0 раз
Сидеров: 3  [ 0 байт/сек ]     Личеров: 0  [ 0 байт/сек ]  
  
Аватара пользователя
Раздал: 130.41 ГБ
Скачал: 45.05 ГБ
Ратио: 2.895
Сообщения: 349589
Зарегистрирован: 27 июл 2015, 20:38

Double Play 2 / Двойная игра 2 (Mark Ashley, Digital Sin) [2007 г., Gonzo, Anal, Oral, Squirt, Interracial, DVDRip, (scenes split)]

Сообщение MalonE » 10 мар 2013, 15:22

Double Play 2 / Двойная игра 2 Год производства: 2007 г.
Страна: USA
Жанр: Gonzo, Anal, Oral, Squirt, Interracial
Язык: Английский
Режиссер: Mark Ashley
Студия: Digital Sin
В ролях: Vanessa Blue, Cytherea, Jada Fire, Kat, Vanessa Lane, Tiana Lynn, Rio Mariah, Mya Mason, Avy Lee Roth, Hillary ScottДоп. информация: Раздача из кусков, найденых в интернете. Отсутствует сцена с Kat & Vanessa Lane
Качество видео: DVDRip, Siterip
Формат видео: AVI, WMV
Видео кодек: XviD, WMV
Аудио кодек: MP3, WMA
тех. информация о сценах
Avy Lee Roth, Rio Mariah - Double Play 2.wmv
Format : Windows Media
File size : 145 MiB
Duration : 26mn 3s
Overall bit rate mode : Variable
Overall bit rate : 777 Kbps
Maximum Overall bit rate : 1 014 Kbps
Encoded date : UTC 2008-01-22 21:40:43.984
Video
ID : 2
Format : VC-1
Format profile : [email protected]
Codec ID : WMV3
Codec ID/Info : Windows Media Video 9
Codec ID/Hint : WMV3
Description of the codec : Windows Media Video 9
Duration : 26mn 3s
Bit rate mode : Variable
Bit rate : 672 Kbps
Width : 480 pixels
Height : 360 pixels
Display aspect ratio : 4:3
Frame rate : 29.970 fps
Bit depth : 8 bits
Scan type : Progressive
Bits/(Pixel*Frame) : 0.130
Stream size : 125 MiB (87%)
Language : Russian
Audio
ID : 1
Format : WMA
Format version : Version 2
Codec ID : 161
Codec ID/Info : Windows Media Audio
Description of the codec : Windows Media Audio 9.2 - 96 kbps, 48 kHz, stereo (A/V) 1-pass CBR
Duration : 26mn 3s
Bit rate mode : Constant
Bit rate : 96.0 Kbps
Channel(s) : 2 channels
Sampling rate : 48.0 KHz
Bit depth : 16 bits
Stream size : 17.9 MiB (12%)
Language : Russian
Hillary Scott, Mya Mason - Double Play 2.wmv
Format : Windows Media
File size : 161 MiB
Duration : 28mn 58s
Overall bit rate mode : Variable
Overall bit rate : 777 Kbps
Maximum Overall bit rate : 933 Kbps
Encoded date : UTC 2008-01-22 23:40:45.843
Video
ID : 2
Format : VC-1
Format profile : [email protected]
Codec ID : WMV3
Codec ID/Info : Windows Media Video 9
Codec ID/Hint : WMV3
Description of the codec : Windows Media Video 9
Duration : 28mn 58s
Bit rate mode : Variable
Bit rate : 672 Kbps
Width : 480 pixels
Height : 360 pixels
Display aspect ratio : 4:3
Frame rate : 29.970 fps
Bit depth : 8 bits
Scan type : Progressive
Bits/(Pixel*Frame) : 0.130
Stream size : 139 MiB (87%)
Language : Russian
Audio
ID : 1
Format : WMA
Format version : Version 2
Codec ID : 161
Codec ID/Info : Windows Media Audio
Description of the codec : Windows Media Audio 9.2 - 96 kbps, 48 kHz, stereo (A/V) 1-pass CBR
Duration : 28mn 58s
Bit rate mode : Constant
Bit rate : 96.0 Kbps
Channel(s) : 2 channels
Sampling rate : 48.0 KHz
Bit depth : 16 bits
Stream size : 19.9 MiB (12%)
Language : Russian
Jada Fire & Vanessa Blue - Double Play 2.avi
Format : AVI
Format/Info : Audio Video Interleave
File size : 343 MiB
Duration : 29mn 31s
Overall bit rate : 1 623 Kbps
Writing library : Boilsoft Joiner build 2411/release
Video
ID : 0
Format : MPEG-4 Visual
Format profile : Advanced [email protected]
Format settings, BVOP : Yes
Format settings, QPel : No
Format settings, GMC : No warppoints
Format settings, Matrix : Default (H.263)
Muxing mode : Packed bitstream
Codec ID : XVID
Codec ID/Hint : XviD
Duration : 29mn 31s
Bit rate : 1 484 Kbps
Width : 528 pixels
Height : 400 pixels
Display aspect ratio : 4:3
Frame rate : 29.970 fps
Color space : YUV
Chroma subsampling : 4:2:0
Bit depth : 8 bits
Scan type : Progressive
Bits/(Pixel*Frame) : 0.234
Stream size : 313 MiB (91%)
Writing library : XviD 1.1.2 (UTC 2006-11-01)
Audio
ID : 1
Format : MPEG Audio
Format version : Version 1
Format profile : Layer 3
Mode : Joint stereo
Mode extension : MS Stereo
Codec ID : 55
Codec ID/Hint : MP3
Duration : 29mn 31s
Bit rate mode : Constant
Bit rate : 128 Kbps
Channel(s) : 2 channels
Sampling rate : 48.0 KHz
Video delay : 5ms
Stream size : 27.0 MiB (8%)
Alignment : Split accross interleaves
Interleave, duration : 33 ms (1.00 video frame)
Interleave, preload duration : 500 ms
Tiana Lynn & Cytherea_Double play 2.avi
Format : AVI
Format/Info : Audio Video Interleave
File size : 251 MiB
Duration : 24mn 13s
Overall bit rate : 1 449 Kbps
Writing library : VirtualDub build 28312/release
Video
ID : 0
Format : MPEG-4 Visual
Format profile : Advanced [email protected]
Format settings, BVOP : Yes
Format settings, QPel : No
Format settings, GMC : No warppoints
Format settings, Matrix : Default (H.263)
Muxing mode : Packed bitstream
Codec ID : XVID
Codec ID/Hint : XviD
Duration : 24mn 13s
Bit rate : 1 405 Kbps
Width : 512 pixels
Height : 384 pixels
Display aspect ratio : 4:3
Frame rate : 29.970 fps
Color space : YUV
Chroma subsampling : 4:2:0
Bit depth : 8 bits
Scan type : Progressive
Bits/(Pixel*Frame) : 0.238
Stream size : 243 MiB (97%)
Writing library : XviD 1.0.3 (UTC 2004-12-20)
Audio
ID : 1
Format : MPEG Audio
Format version : Version 2
Format profile : Layer 3
Codec ID : 55
Codec ID/Hint : MP3
Duration : 24mn 13s
Bit rate mode : Constant
Bit rate : 32.0 Kbps
Channel(s) : 1 channel
Sampling rate : 24.0 KHz
Stream size : 5.54 MiB (2%)
Alignment : Split accross interleaves
Interleave, duration : 33 ms (1.00 video frame)
Interleave, preload duration : 500 ms
Скриншоты



 
   
Торрент:
Зарегистрирован [05 сен 2015, 02:33]
Скачать торрент Магнет ссылка
Скачать торрент
[ Размер 18.76 КБ / Просмотров 0 ]
Статус:
Проверен
 
.torrent скачан: 0 раз
Хэш: 9c1c7ada0fc36212214ce7ac267070e0d9ff2005
Размер: 901.32 МБ (945 098 127 байт)
 

Вернуться в Гонзо-фильмы / Gonzo

Кто сейчас на конференции

Сейчас эту тему просматривают: нет зарегистрированных пользователей и гости: 1


Ресурс не предоставляет электронные версии произведений, а занимается лишь коллекционированием и каталогизацией ссылок, присылаемых и публикуемых на форуме нашими читателями. Если вы являетесь правообладателем какого-либо представленного материала и не желаете чтобы ссылка на него находилась в нашем каталоге, свяжитесь с нами и мы незамедлительно удалим её. Файлы для обмена на трекере предоставлены пользователями сайта, и администрация не несёт ответственности за их содержание. Просьба не заливать файлы, защищенные авторскими правами, а также файлы нелегального содержания!
cron