Tales From The Gloryhole / Байки из туалета (Zander, Vouyer Media) [2010 г., Gonzo, Glory Hole, DVDRip] Jenaveve Jolie, Courtney Cummz, Mason Moore, Halie James, Haley Cummings

 Статистика раздачи 
Размер: 1.36 ГБ   |  Зарегистрирован: 05 сен 2015, 02:31   |   .torrent скачан: 0 раз
Сидеров: 3  [ 0 байт/сек ]     Личеров: 0  [ 0 байт/сек ]  
  
В сети
Аватара пользователя
Раздал: 130.41 ГБ
Скачал: 45.05 ГБ
Ратио: 2.895
Сообщения: 349589
Зарегистрирован: 27 июл 2015, 20:38

Tales From The Gloryhole / Байки из туалета (Zander, Vouyer Media) [2010 г., Gonzo, Glory Hole, DVDRip] Jenaveve Jolie, Courtney Cummz, Mason Moore, Halie James, Haley Cummings

Сообщение MalonE » 10 мар 2013, 16:17

Tales From The Gloryhole / Байки из туалета Год производства: 2010 г.
Страна: USA
Жанр: Gonzo, Glory Hole
Продолжительность: 02:09:44
Язык: Английский
Режиссер: Zander
Студия: Vouyer Media
В ролях: Jenaveve Jolie, Courtney Cummz, Mason Moore, Halie James, Haley Cummings, Marco Banderas, Anthony Rosano, Mark Wood, Mark Ashley, Chris Charming
Описание: From Hollywood films like "Scary Movie" to such popular TV shows as "The Shield," the mystique of a hole in the wall that allows partners to maintain anonymity while having sex has become one of the great fantasies of pop culture. Now, Vouyer Media is prepared to take you behind closed doors to experience an oasis of XXX reality with TALES FROM THE GLORY HOLE. Join such acclaimed performers as Courtney Cummz, Jenaveve Jolie, Halie James, Haley Cummings and fan favorite Mason Moore as they service the likes of Mark Wood, Mark Ashley, Anthony Rosano, Chris Charming and Marco Banderas. TALES FROM THE GLORY HOLE. It's forbidden erotica with an edge.
Качество видео: DVDRip
Формат видео: AVI
Видео кодек: XviD
Аудио кодек: MP3
Видео: Xvid 640x352 25.00fps [Stream 00]
Аудио: MPEG Audio Layer 3 48000Hz stereo 128kbps [Stream 01]
подробно
Format : AVI
Format/Info : Audio Video Interleave
File size : 698 MiB
Duration : 1h 5mn
Overall bit rate : 1 498 Kbps
Writing application : VirtualDubMod 1.5.10.2 (build 2540/release)
Writing library : VirtualDubMod build 2540/release
Video
ID : 0
Format : MPEG-4 Visual
Format profile : Advanced [email protected]
Format settings, BVOP : Yes
Format settings, QPel : No
Format settings, GMC : No warppoints
Format settings, Matrix : Default (H.263)
Muxing mode : Packed bitstream
Codec ID : XVID
Codec ID/Hint : XviD
Duration : 1h 5mn
Bit rate : 1 228 Kbps
Width : 640 pixels
Height : 352 pixels
Display aspect ratio : 16:9
Frame rate : 25.000 fps
Color space : YUV
Chroma subsampling : 4:2:0
Bit depth : 8 bits
Scan type : Progressive
Bits/(Pixel*Frame) : 0.218
Stream size : 572 MiB (82%)
Writing library : XviD 1.0.3 (UTC 2004-12-20)
Audio #1
ID : 1
Format : MPEG Audio
Format version : Version 1
Format profile : Layer 3
Mode : Joint stereo
Codec ID : 55
Codec ID/Hint : MP3
Duration : 1h 5mn
Bit rate mode : Constant
Bit rate : 128 Kbps
Channel(s) : 2 channels
Sampling rate : 48.0 KHz
Stream size : 59.6 MiB (9%)
Alignment : Aligned on interleaves
Interleave, duration : 40 ms (1.00 video frame)
Interleave, preload duration : 504 ms
Audio #2
ID : 2
Format : MPEG Audio
Format version : Version 1
Format profile : Layer 3
Mode : Joint stereo
Codec ID : 55
Codec ID/Hint : MP3
Duration : 1h 5mn
Bit rate mode : Constant
Bit rate : 128 Kbps
Channel(s) : 2 channels
Sampling rate : 48.0 KHz
Stream size : 59.6 MiB (9%)
Alignment : Aligned on interleaves
Interleave, duration : 40 ms (1.00 video frame)
Interleave, preload duration : 504 ms
Скриншоты

 
   
Торрент:
Зарегистрирован [05 сен 2015, 02:31]
Скачать торрент Магнет ссылка
Скачать торрент
[ Размер 14.41 КБ / Просмотров 2 ]
Статус:
Проверен
 
.torrent скачан: 0 раз
Хэш: f76f61890aee3b5038e94313909c5dff705e121a
Размер: 1.36 ГБ (1 465 087 258 байт)
 

Вернуться в Гонзо-фильмы / Gonzo

Кто сейчас на конференции

Сейчас эту тему просматривают: нет зарегистрированных пользователей и гости: 1


Ресурс не предоставляет электронные версии произведений, а занимается лишь коллекционированием и каталогизацией ссылок, присылаемых и публикуемых на форуме нашими читателями. Если вы являетесь правообладателем какого-либо представленного материала и не желаете чтобы ссылка на него находилась в нашем каталоге, свяжитесь с нами и мы незамедлительно удалим её. Файлы для обмена на трекере предоставлены пользователями сайта, и администрация не несёт ответственности за их содержание. Просьба не заливать файлы, защищенные авторскими правами, а также файлы нелегального содержания!
cron