Anal Debauchery / Анальный разврат (Harmony Films, Gazzman) [2009, Compilation, Anal, Gonzo, DVDRip]

 Статистика раздачи 
Размер: 2.25 ГБ   |  Зарегистрирован: 05 сен 2015, 02:29   |   .torrent скачан: 0 раз
Сидеров: 3  [ 0 байт/сек ]     Личеров: 0  [ 0 байт/сек ]  
  
Аватара пользователя
Раздал: 130.41 ГБ
Скачал: 45.05 ГБ
Ратио: 2.895
Сообщения: 349589
Зарегистрирован: 27 июл 2015, 20:38

Anal Debauchery / Анальный разврат (Harmony Films, Gazzman) [2009, Compilation, Anal, Gonzo, DVDRip]

Сообщение MalonE » 10 мар 2013, 18:31

Anal Debauchery / Анальный разврат Год производства: 2009 г.
Жанр: Compilation, Anal, Gonzo
Продолжительность: 03:52:31 + 01:01:30
Язык: Английский
Студия: Harmony Films
Режиссер: Gazzman
Страна: United Kingdom
В ролях: Sharka Blue, ElleBrook & Isabel Ice, McKenzie Lee, Alicia Rhodes & Teena Fine, Dora Venter, Taylor & Elizabeth, Lyla Lei, Alicia Rodes, Sara & Sharka Blue, Ashley Long
Описание: Anal Debauchery is anal fucking at its very best! Taking a selection of some of Harmony's most depraved hard fucking buggery scenes, they have produced one hell of a two dvd compilation for your viewing pleasure. Blonde cutie Sharka Blue kicks off this rumptastic flick as she gets lessons in how to take several toys up her tight ass. Soon Sharka is getting a pounding she won't forget, she rides her man's cock hard and fast, crying out with pleasure as the stud empties his love juices over her pretty face. There are ten great scenes in total, taken from Young Harlots In London, Maison Erotique, Slam It In Rough, The Couch, Kinky Bitch, Katja Kassin's Fuck Me, Roxy Jezel's Fuck Me, Belladonna's Fuck Me and Slam It In Every Hole. This is an anal fuck fest you'll want to watch again and again. Cast: Sharka Blue, Elle Brook, Isabel Ice, McKenzie Lee, Alicia Rhodes, Dora Venter, Taylor Morgan, Elizabeth Michelle Lawrence, Lyla Lie, Teena Fine, Ashley Long, Sarah, Others
Качество видео: DVDRip
Формат видео: AVI
Видео кодек: XviD
Аудио кодек: MP3
Видео: Dolby AC3 48000Hz stereo 192kbps
Аудио: DivX 5 720x404 29.97fps
детали
Format : AVI
Format/Info : Audio Video Interleave
File size : 843 MiB
Duration : 1h 52mn
Overall bit rate : 1 044 Kbps
Writing library : VirtualDub build 24442/release
Video
ID : 0
Format : MPEG-4 Visual
Format settings, BVOP : Yes
Format settings, QPel : No
Format settings, GMC : No warppoints
Format settings, Matrix : Default (H.263)
Muxing mode : Packed bitstream
Codec ID : DX50
Codec ID/Hint : DivX 5
Duration : 1h 52mn
Bit rate : 840 Kbps
Width : 720 pixels
Height : 404 pixels
Display aspect ratio : 16:9
Frame rate : 29.970 fps
Color space : YUV
Chroma subsampling : 4:2:0
Bit depth : 8 bits
Scan type : Progressive
Bits/(Pixel*Frame) : 0.096
Stream size : 678 MiB (80%)
Writing library : DivX 3330
Audio
ID : 1
Format : AC-3
Format/Info : Audio Coding 3
Mode extension : CM (complete main)
Codec ID : 2000
Duration : 1h 52mn
Bit rate mode : Constant
Bit rate : 192 Kbps
Channel(s) : 2 channels
Channel positions : Front: L R
Sampling rate : 48.0 KHz
Stream size : 155 MiB (18%)
Alignment : Split accross interleaves
Interleave, duration : 33 ms (1.00 video frame)
Interleave, preload duration : 500 ms
Скриншоты


 
   
Торрент:
Зарегистрирован [05 сен 2015, 02:29]
Скачать торрент Магнет ссылка
Скачать торрент
[ Размер 11.78 КБ / Просмотров 1 ]
Статус:
Проверен
 
.torrent скачан: 0 раз
Хэш: a002c90d0adffdcd107b4a0d781feab27cd897ba
Размер: 2.25 ГБ (2 411 656 147 байт)
 

Вернуться в Гонзо-фильмы / Gonzo

Кто сейчас на конференции

Сейчас эту тему просматривают: нет зарегистрированных пользователей и гости: 1


Ресурс не предоставляет электронные версии произведений, а занимается лишь коллекционированием и каталогизацией ссылок, присылаемых и публикуемых на форуме нашими читателями. Если вы являетесь правообладателем какого-либо представленного материала и не желаете чтобы ссылка на него находилась в нашем каталоге, свяжитесь с нами и мы незамедлительно удалим её. Файлы для обмена на трекере предоставлены пользователями сайта, и администрация не несёт ответственности за их содержание. Просьба не заливать файлы, защищенные авторскими правами, а также файлы нелегального содержания!
cron