Bra Busters 2 / Охотники за лифчиками 2 (Chris Streams, Jules Jordan Video) [2011 г., Gonzo, Big Tits, All sex, Anal, DP, DVDRip]

 Статистика раздачи 
Размер: 2.72 ГБ   |  Зарегистрирован: 05 сен 2015, 02:28   |   .torrent скачан: 1 раз
Сидеров: 3  [ 0 байт/сек ]     Личеров: 0  [ 0 байт/сек ]  
  
Аватара пользователя
Раздал: 130.41 ГБ
Скачал: 45.05 ГБ
Ратио: 2.895
Сообщения: 349589
Зарегистрирован: 27 июл 2015, 20:38

Bra Busters 2 / Охотники за лифчиками 2 (Chris Streams, Jules Jordan Video) [2011 г., Gonzo, Big Tits, All sex, Anal, DP, DVDRip]

Сообщение MalonE » 10 мар 2013, 19:10

Bra Busters 2 / Охотники за лифчиками 2 Год производства: April 25, 2011
Страна: USA
Жанр: Gonzo, Big Tits, All sex, Anal, DP
Продолжительность: 3 Hours 44 Mins
Язык: Английский
Режиссер: Chris Streams
Студия: Jules Jordan Video
В ролях: Rebeca Linares, Jenna Presley, Alanah Rae, Bridgette B, Puma Swede, Yurizan Beltran
Описание: Rebeca Linares shows big things come in small packages!
Alanah Rae has crazy curves...that seem to never end!
Jenna Presley...is one big titty-fuck machine!
Little Miss B.B. stands for boobs & butt...she takes cock in both!
This Blonde bombshell will have you wanting to blow your wad on her huge rack!
Yurizan has great big tits...and a beautiful face!
Доп. информация:
Качество видео: DVDRip
Формат видео: AVI
Видео кодек: XviD
Аудио кодек: MP3
Видео: Xvid 640x352 29.97fps
Аудио: MPEG Audio Layer 3 48000Hz stereo 126kbps
тех. инфо
format : AVI
Format/Info : Audio Video Interleave
File size : 697 MiB
Duration : 58mn 49s
Overall bit rate : 1 657 Kbps
Writing application : VirtualDubMod 1.5.10.2 (build 2540/release)
Writing library : VirtualDubMod build 2540/release
Video
ID : 0
Format : MPEG-4 Visual
Format profile : Advanced [email protected]
Format settings, BVOP : Yes
Format settings, QPel : No
Format settings, GMC : No warppoints
Format settings, Matrix : Default (MPEG)
Codec ID : XVID
Codec ID/Hint : XviD
Duration : 58mn 49s
Bit rate : 1 517 Kbps
Width : 640 pixels
Height : 352 pixels
Display aspect ratio : 16:9
Frame rate : 29.970 fps
Color space : YUV
Chroma subsampling : 4:2:0
Bit depth : 8 bits
Scan type : Progressive
Bits/(Pixel*Frame) : 0.225
Stream size : 638 MiB (92%)
Writing library : XviD 1.2.1 (UTC 2008-12-04)
Audio
ID : 1
Format : MPEG Audio
Format version : Version 1
Format profile : Layer 3
Mode : Joint stereo
Mode extension : MS Stereo
Codec ID : 55
Codec ID/Hint : MP3
Duration : 58mn 49s
Bit rate mode : Variable
Bit rate : 128 Kbps
Channel(s) : 2 channels
Sampling rate : 48.0 KHz
Stream size : 53.0 MiB (8%)
Alignment : Aligned on interleaves
Interleave, duration : 24 ms (0.72 video frame)
Interleave, preload duration : 145 ms
Writing library : LAME3.90.
Encoding settings : -m j -V 4 -q 2 -lowpass 17.6 --abr 128
Скриншоты



 
   
Торрент:
Зарегистрирован [05 сен 2015, 02:28]
Скачать торрент Магнет ссылка
Скачать торрент
[ Размер 14.24 КБ / Просмотров 0 ]
Статус:
Проверен
 
.torrent скачан: 1 раз
Хэш: dbc2915160b22c18021e2881798cd63d41cf79f5
Размер: 2.72 ГБ (2 924 670 976 байт)
 

Вернуться в Гонзо-фильмы / Gonzo

Кто сейчас на конференции

Сейчас эту тему просматривают: нет зарегистрированных пользователей и гости: 1


Ресурс не предоставляет электронные версии произведений, а занимается лишь коллекционированием и каталогизацией ссылок, присылаемых и публикуемых на форуме нашими читателями. Если вы являетесь правообладателем какого-либо представленного материала и не желаете чтобы ссылка на него находилась в нашем каталоге, свяжитесь с нами и мы незамедлительно удалим её. Файлы для обмена на трекере предоставлены пользователями сайта, и администрация не несёт ответственности за их содержание. Просьба не заливать файлы, защищенные авторскими правами, а также файлы нелегального содержания!
cron