Jesse Jane Heat / Горячая Джесси Джейн (Robby D. / Digital Playground) [2008 г.,Gonzo, Straight, BDRip-AVC]

 Статистика раздачи 
Размер: 2.14 ГБ   |  Зарегистрирован: 05 сен 2015, 02:26   |   .torrent скачан: 0 раз
Сидеров: 3  [ 0 байт/сек ]     Личеров: 0  [ 0 байт/сек ]  
  
В сети
Аватара пользователя
Раздал: 130.41 ГБ
Скачал: 45.05 ГБ
Ратио: 2.895
Сообщения: 349589
Зарегистрирован: 27 июл 2015, 20:38

Jesse Jane Heat / Горячая Джесси Джейн (Robby D. / Digital Playground) [2008 г.,Gonzo, Straight, BDRip-AVC]

Сообщение MalonE » 10 мар 2013, 21:07

Jesse Jane Heat / Горячая Джесси Джейн--Год производства: 2010 г. Страна: USA Жанр: Gonzo, Straight Продолжительность: 01:54:47
Субтитры: Нет Язык: Английский-
Режиссер: Robby D. Студия: Digital Playground-В ролях:
Danny Mountain, Jerry, Jesse Jane, Johnny Sins, Kiki Vidis, Madison Scott, Paris Mayne, Tommy Gunn-Описание: | IMDB |
Jesse Jane Heat provides an astounding platform for superstar Jesse Jane to lose all inhibitions and throw herself com-pletely into a world of sex.
There is no denying a girl sexual satisfaction when she all she craves is a giant cock and an active tongue.
Jesse gathered some of her favorite girls and guys together for a movie showcases raw sexual desire.
Jesse sucks and fucks Tommy Gunn, Danny Mountain, and Johnny Sins in 3 must-see scenes.
Madison Scott, Kiki Vidis, and Paris Mayne provide the extra HEAT that really gets Jesse turned on and wanting more!-
Качество видео: BDRip-AVC Формат видео: MKV
Видео кодек: AVC Аудио кодек: AC3-Видео: AVC | 16:9 | 1024x576 | 23.976 fps | 2 240 Kbps
Аудио: AC3 | 48.0 KHz | 6 ch | 448 Kbps -
Media Info
Код:
Код: Выделить всё
General
Complete name                    : E:\Pornolab.net\Jesse.Jane.Heat.BDRip-AVC.Milashka.mkv
Format                           : Matroska
File size                        : 2.14 GiB
Duration                         : 1h 54mn
Overall bit rate                 : 2 688 Kbps
Encoded date                     : UTC 2010-09-19 09:10:28
Writing application              : mkvmerge v3.3.0 ('Language') built on Mar 24 2010 14:59:24
Writing library                  : libebml v0.8.0 + libmatroska v0.9.0
Video
ID                               : 1
Format                           : AVC
Format/Info                      : Advanced Video Codec
Format profile                   : [email protected]
Format settings, CABAC           : Yes
Format settings, ReFrames        : 4 frames
Muxing mode                      : Container [email protected]
Codec ID                         : V_MPEG4/ISO/AVC
Duration                         : 1h 54mn
Bit rate                         : 2 187 Kbps
Nominal bit rate                 : 2 240 Kbps
Width                            : 1 024 pixels
Height                           : 576 pixels
Display aspect ratio             : 16:9
Frame rate                       : 23.976 fps
Resolution                       : 8 bits
Colorimetry                      : 4:2:0
Scan type                        : Progressive
Bits/(Pixel*Frame)               : 0.155
Stream size                      : 1.74 GiB (81%)
Writing library                  : x264 core 92 r1510 33d382a
Encoding settings                : cabac=1 / ref=3 / deblock=1:0:0 / analyse=0x3:0x113 / me=hex / subme=7 / psy=1 / psy_rd=1.00:0.00 / mixed_ref=1 / me_range=16 / chroma_me=1 / trellis=1 / 8x8dct=1 / cqm=0 / deadzone=21,11 / fast_pskip=1 / chroma_qp_offset=-2 / threads=3 / sliced_threads=0 / nr=0 / decimate=1 / interlaced=0 / constrained_intra=0 / bframes=3 / b_pyramid=2 / b_adapt=1 / b_bias=0 / direct=1 / wpredb=1 / wpredp=2 / keyint=250 / keyint_min=25 / scenecut=40 / intra_refresh=0 / rc_lookahead=40 / rc=2pass / mbtree=1 / bitrate=2240 / ratetol=1.0 / qcomp=0.60 / qpmin=10 / qpmax=51 / qpstep=4 / cplxblur=20.0 / qblur=0.5 / ip_ratio=1.40 / aq=1:1.00
Audio
ID                               : 2
Format                           : AC-3
Format/Info                      : Audio Coding 3
Codec ID                         : A_AC3
Duration                         : 1h 54mn
Bit rate mode                    : Constant
Bit rate                         : 448 Kbps
Channel(s)                       : 6 channels
Channel positions                : Front: L C R, Surround: L R, LFE
Sampling rate                    : 48.0 KHz
Stream size                      : 366 MiB (17%)
Language                         : English

Скриншоты
 
   
Торрент:
Зарегистрирован [05 сен 2015, 02:26]
Скачать торрент Магнет ссылка
Скачать торрент
[ Размер 11.11 КБ / Просмотров 0 ]
Статус:
Проверен
 
.torrent скачан: 0 раз
Хэш: 354a9bad4121a1d7cfbbc4ff3b081e52d0d571e7
Размер: 2.14 ГБ (2 300 954 431 байт)
 

Вернуться в Гонзо-фильмы / Gonzo

Кто сейчас на конференции

Сейчас эту тему просматривают: нет зарегистрированных пользователей и гости: 1


Ресурс не предоставляет электронные версии произведений, а занимается лишь коллекционированием и каталогизацией ссылок, присылаемых и публикуемых на форуме нашими читателями. Если вы являетесь правообладателем какого-либо представленного материала и не желаете чтобы ссылка на него находилась в нашем каталоге, свяжитесь с нами и мы незамедлительно удалим её. Файлы для обмена на трекере предоставлены пользователями сайта, и администрация не несёт ответственности за их содержание. Просьба не заливать файлы, защищенные авторскими правами, а также файлы нелегального содержания!
cron