All Star 2 / Все звезды 2 (Jules Bart / Digital Playground) [2009, Gonzo, Anal, European, BDRip-AVC]

 Статистика раздачи 
Размер: 1.7 ГБ   |  Зарегистрирован: 05 сен 2015, 02:25   |   .torrent скачан: 0 раз
Сидеров: 3  [ 0 байт/сек ]     Личеров: 0  [ 0 байт/сек ]  
  
Аватара пользователя
Раздал: 130.41 ГБ
Скачал: 45.05 ГБ
Ратио: 2.895
Сообщения: 349589
Зарегистрирован: 27 июл 2015, 20:38

All Star 2 / Все звезды 2 (Jules Bart / Digital Playground) [2009, Gonzo, Anal, European, BDRip-AVC]

Сообщение MalonE » 10 мар 2013, 22:23

All Star 2 / Все звезды 2--Год производства: 2010 г. Страна: USA Жанр: Gonzo, Anal, European Продолжительность: 02:12:00
Субтитры: Нет Язык: Английский-
Режиссер: Jules Bart Студия: Digital Playground-В ролях:
Nick Lang, James Brossman, Ian Scott, Choky Ice, Britney, Colette, Mugur, Katrin Wolf, Black Angelika, Aliz, Ella Brawen-Описание: | IMDB |
Volume 2 is all about tight asses, gorgeous girls and anal sex! Starring Colette, Britney, Katrin Wolf, Black Angelika, Aliz & Ella Brawen!
The cameras keep rolling as you get an inside look at the behind-the-scenes making of “All Star 2” - packed with nearly 2 hours of rock hard footage.-
Качество видео: BDRip-AVC Формат видео: MKV
Видео кодек: AVC Аудио кодек: AC3-Видео: AVC | 16:9 | 1024x576 | 29.970 fps | 2 058 Kbps
Аудио: AC3 | 48.0 KHz | 2 ch | 192 Kbps -
Media Info
Код:
Код: Выделить всё
General
Complete name                    : D:\Pornolab.net\All.Star.2.BDRip-AVC.Milashka.mkv
Format                           : Matroska
File size                        : 1.70 GiB
Duration                         : 1h 48mn
Overall bit rate                 : 2 252 Kbps
Encoded date                     : UTC 2010-10-08 04:45:23
Writing application              : mkvmerge v3.3.0 ('Language') built on Mar 24 2010 14:59:24
Writing library                  : libebml v0.8.0 + libmatroska v0.9.0
Video
ID                               : 1
Format                           : AVC
Format/Info                      : Advanced Video Codec
Format profile                   : [email protected]
Format settings, CABAC           : Yes
Format settings, ReFrames        : 4 frames
Muxing mode                      : Container [email protected]
Codec ID                         : V_MPEG4/ISO/AVC
Duration                         : 1h 47mn
Bit rate                         : 2 016 Kbps
Nominal bit rate                 : 2 058 Kbps
Width                            : 1 024 pixels
Height                           : 576 pixels
Display aspect ratio             : 16:9
Frame rate                       : 29.970 fps
Resolution                       : 8 bits
Colorimetry                      : 4:2:0
Scan type                        : Progressive
Bits/(Pixel*Frame)               : 0.114
Stream size                      : 1.52 GiB (89%)
Writing library                  : x264 core 92 r1510 33d382a
Encoding settings                : cabac=1 / ref=4 / deblock=1:0:0 / analyse=0x3:0x113 / me=umh / subme=7 / psy=1 / psy_rd=1.00:0.00 / mixed_ref=1 / me_range=32 / chroma_me=1 / trellis=0 / 8x8dct=1 / cqm=0 / deadzone=21,11 / fast_pskip=0 / chroma_qp_offset=-2 / threads=3 / sliced_threads=0 / nr=0 / decimate=1 / interlaced=0 / constrained_intra=0 / bframes=2 / b_pyramid=2 / b_adapt=0 / b_bias=0 / direct=3 / wpredb=1 / wpredp=0 / keyint=250 / keyint_min=25 / scenecut=40 / intra_refresh=0 / rc_lookahead=60 / rc=2pass / mbtree=1 / bitrate=2058 / ratetol=1.0 / qcomp=0.60 / qpmin=10 / qpmax=51 / qpstep=4 / cplxblur=20.0 / qblur=0.5 / vbv_maxrate=14000 / vbv_bufsize=14000 / ip_ratio=1.40 / aq=1:1.00 / nal_hrd=none
Audio
ID                               : 2
Format                           : AC-3
Format/Info                      : Audio Coding 3
Codec ID                         : A_AC3
Duration                         : 1h 48mn
Bit rate mode                    : Constant
Bit rate                         : 192 Kbps
Channel(s)                       : 2 channels
Channel positions                : L R
Sampling rate                    : 48.0 KHz
Stream size                      : 148 MiB (9%)

Скриншоты
 
   
Торрент:
Зарегистрирован [05 сен 2015, 02:25]
Скачать торрент Магнет ссылка
Скачать торрент
[ Размер 17.39 КБ / Просмотров 0 ]
Статус:
Проверен
 
.torrent скачан: 0 раз
Хэш: 22a5369fddb0c92723000a28b0b7ac8abcd50e47
Размер: 1.7 ГБ (1 824 966 309 байт)
 

Вернуться в Гонзо-фильмы / Gonzo

Кто сейчас на конференции

Сейчас эту тему просматривают: нет зарегистрированных пользователей и гости: 1


Ресурс не предоставляет электронные версии произведений, а занимается лишь коллекционированием и каталогизацией ссылок, присылаемых и публикуемых на форуме нашими читателями. Если вы являетесь правообладателем какого-либо представленного материала и не желаете чтобы ссылка на него находилась в нашем каталоге, свяжитесь с нами и мы незамедлительно удалим её. Файлы для обмена на трекере предоставлены пользователями сайта, и администрация не несёт ответственности за их содержание. Просьба не заливать файлы, защищенные авторскими правами, а также файлы нелегального содержания!
cron