Busty Waitresses / Грудастые Официантки (William H. / Elegant Angel) [2009 г., Gonzo, Big Tits, Anal, BDRip-AVC]

 Статистика раздачи 
Размер: 2.12 ГБ   |  Зарегистрирован: 05 сен 2015, 02:25   |   .torrent скачан: 0 раз
Сидеров: 3  [ 0 байт/сек ]     Личеров: 0  [ 0 байт/сек ]  
  
В сети
Аватара пользователя
Раздал: 130.41 ГБ
Скачал: 45.05 ГБ
Ратио: 2.895
Сообщения: 349589
Зарегистрирован: 27 июл 2015, 20:38

Busty Waitresses / Грудастые Официантки (William H. / Elegant Angel) [2009 г., Gonzo, Big Tits, Anal, BDRip-AVC]

Сообщение MalonE » 10 мар 2013, 22:25

Busty Waitresses
Грудастые Официантки
--Год производства: 2009 г. Страна: USA Жанр: Gonzo, Big Tits, Anal Продолжительность: 02:15:17
Субтитры: Нет Язык: Английский-
Режиссер: William H. Студия: Elegant Angel-В ролях:
Anthony Rosano, Arnold Schwarzenpecker, Jada Fire, James Deen, Katie Kox, Kyle Stone, Lisa Ann, Mark Ashley, Mick Blue, Phoenix Marie, Sophie Dee-Описание: | IMDB |
Busty Waitresses Blu-Ray Description: "Elegant Angel proudly presents Busty Waitresses.
Award winning director, William H, is back with an all-star cast featuring Lisa Ann, Phoenix Marie, Sophie Dee, Katie Kox, and Jada Fire.
Watch these seductive waitresses show off their ample cleavage as they service their customers in more ways than you would expect! Do not miss!"-
Качество видео: BDRip-AVC Формат видео: MKV
Видео кодек: AVC Аудио кодек: AC3-Видео: AVC | 16:9 | 1024x576 | 23.976 fps | 1 980 Kbps
Аудио: AC3 | 48.0 KHz | 2 ch | 256 Kbps -
Media Info
Код:
Код: Выделить всё
General
Complete name                    : D:\Pornolab.net\Busty.Waitresses.BDRip-AVC.Milashka.mkv
Format                           : Matroska
File size                        : 2.12 GiB
Duration                         : 2h 15mn
Overall bit rate                 : 2 238 Kbps
Encoded date                     : UTC 2010-09-29 03:48:53
Writing application              : mkvmerge v3.3.0 ('Language') built on Mar 24 2010 14:59:24
Writing library                  : libebml v0.8.0 + libmatroska v0.9.0
Video
ID                               : 1
Format                           : AVC
Format/Info                      : Advanced Video Codec
Format profile                   : [email protected]
Format settings, CABAC           : Yes
Format settings, ReFrames        : 4 frames
Muxing mode                      : Container [email protected]
Codec ID                         : V_MPEG4/ISO/AVC
Duration                         : 2h 15mn
Bit rate                         : 1 937 Kbps
Nominal bit rate                 : 1 980 Kbps
Width                            : 1 024 pixels
Height                           : 576 pixels
Display aspect ratio             : 16:9
Frame rate                       : 23.976 fps
Resolution                       : 8 bits
Colorimetry                      : 4:2:0
Scan type                        : Progressive
Bits/(Pixel*Frame)               : 0.137
Stream size                      : 1.83 GiB (86%)
Writing library                  : x264 core 92 r1510 33d382a
Encoding settings                : cabac=1 / ref=4 / deblock=1:0:0 / analyse=0x3:0x113 / me=umh / subme=7 / psy=1 / psy_rd=1.00:0.00 / mixed_ref=1 / me_range=32 / chroma_me=1 / trellis=0 / 8x8dct=1 / cqm=0 / deadzone=21,11 / fast_pskip=0 / chroma_qp_offset=-2 / threads=3 / sliced_threads=0 / nr=0 / decimate=1 / interlaced=0 / constrained_intra=0 / bframes=2 / b_pyramid=2 / b_adapt=0 / b_bias=0 / direct=3 / wpredb=1 / wpredp=0 / keyint=250 / keyint_min=25 / scenecut=40 / intra_refresh=0 / rc_lookahead=60 / rc=2pass / mbtree=1 / bitrate=1980 / ratetol=1.0 / qcomp=0.60 / qpmin=10 / qpmax=51 / qpstep=4 / cplxblur=20.0 / qblur=0.5 / vbv_maxrate=14000 / vbv_bufsize=14000 / ip_ratio=1.40 / aq=1:1.00 / nal_hrd=none
Audio
ID                               : 2
Format                           : AC-3
Format/Info                      : Audio Coding 3
Codec ID                         : A_AC3
Duration                         : 2h 15mn
Bit rate mode                    : Constant
Bit rate                         : 256 Kbps
Channel(s)                       : 2 channels
Channel positions                : L R
Sampling rate                    : 48.0 KHz
Stream size                      : 248 MiB (11%)

Скриншоты
 
   
Торрент:
Зарегистрирован [05 сен 2015, 02:25]
Скачать торрент Магнет ссылка
Скачать торрент
[ Размер 10.99 КБ / Просмотров 1 ]
Статус:
Проверен
 
.torrent скачан: 0 раз
Хэш: 9c133326e8e08681cbfef25c3a3b571893d377e6
Размер: 2.12 ГБ (2 275 558 723 байт)
 

Вернуться в Гонзо-фильмы / Gonzo

Кто сейчас на конференции

Сейчас эту тему просматривают: нет зарегистрированных пользователей и гости: 1


Ресурс не предоставляет электронные версии произведений, а занимается лишь коллекционированием и каталогизацией ссылок, присылаемых и публикуемых на форуме нашими читателями. Если вы являетесь правообладателем какого-либо представленного материала и не желаете чтобы ссылка на него находилась в нашем каталоге, свяжитесь с нами и мы незамедлительно удалим её. Файлы для обмена на трекере предоставлены пользователями сайта, и администрация не несёт ответственности за их содержание. Просьба не заливать файлы, защищенные авторскими правами, а также файлы нелегального содержания!
cron