Sticky Knickers / Липкие Штанишки (Macondo, Daring!) [2008 г., Gonzo, All Sex, Oral, Anal, Cumshot, Facial, Creampie, Foreign, Hardcore, Fetish, DVDRip] [Split Scenes]

 Статистика раздачи 
Размер: 3.01 ГБ   |  Зарегистрирован: 05 сен 2015, 02:22   |   .torrent скачан: 0 раз
Сидеров: 3  [ 0 байт/сек ]     Личеров: 0  [ 0 байт/сек ]  
  
Аватара пользователя
Раздал: 130.41 ГБ
Скачал: 45.05 ГБ
Ратио: 2.895
Сообщения: 349589
Зарегистрирован: 27 июл 2015, 20:38

Sticky Knickers / Липкие Штанишки (Macondo, Daring!) [2008 г., Gonzo, All Sex, Oral, Anal, Cumshot, Facial, Creampie, Foreign, Hardcore, Fetish, DVDRip] [Split Scenes]

Сообщение MalonE » 11 мар 2013, 09:26

Sticky Knickers / Липкие Штанишки
* Фильм разделён на сцены.
#77Год производства: 2008 г.
Release Date: April 28, 2010
Страна: Europe
Жанр: Gonzo, All Sex, Compilations, Oral, Anal, Cumshot, Facial, Creampie, Foreign, Hardcore, Fetish, European
Продолжительность: 02:12:01
Режиссер: Macondo
Студия: Daring Media Group
Язык: Английский
В ролях: Actresses-
Chantal Ferrera (as Chantal Ferrara) [Anal Facial Bald]
Mahé [Anal Bald]
Megane [Anal Bald Creampie]
Melissa Black [Anal Facial Bald]
Dolly Darkley (as Molly) [Anal Bald]
Priva [Anal]
Actors- Cage, George Uhl, Ian Scott, Olivier Sanchez
Scene Breakdowns
Scene 1. Melissa Black, Cage
Scene 2. Mahé, Cage, Ian Scott, Olivier Sanchez
Scene 3. Megane, Olivier Sanchez
Scene 4. Priva, George Uhl, Ian Scott
Scene 5. Chantal Ferrera, Dolly Darkley, Olivier Sanchez
Описание: Deze sekskatjes zijn gehuld in sexy lingerie en gaan gelijk over tot hete actie. Ze vingeren zichzelf net zo lang en zo hevig tot het geil uit hun poesjes druipt en de stringetjes plakken. Zodra hun schaamhaartjes glinsteren van het zweet, worden de natte liefdesgrotjes verwend door de hongerige heren. Het gaat er niet bepaald subtiel aan toe, maar het is wel effectief! Deze sekspoezen verwachten rauwe seks en dat krijgen ze ook! En alhoewel ze er bijna damesachtig uitzien in hun prachtige, chique ondergoed en hun hoge hakken... van binnen zijn ze als geldbeluste hoeren, zo geil!
____________
No nonsense, its straight to the action! Beautiful lingerie clad nymphs wank themselves till their pussy drips and their knickers get sticky. As soon as they are ready, big hard cocks appear to pump every hole. It’s not meant to be subtle, just effective. Straight to the hardcore with a storyline bypass operation. These girls are ready and they want it bad! High heeled shoes and sexy underwear make these girls look classy but underneath they are as slutty as you like!
These babes love cum and they have the knickers to prove it! So cum and join them as they suck and f*ck for your viewing pleasure!Трейлер
Сэмпл
Качество видео: DVDRip
Формат видео: AVI
Видео кодек: XViD
Аудио кодек: MP3
Видео: 3000 Kbps, 25.0 fps, 864*480 (AR 853*480 / 16:9), XVID = XVID Mpeg-4
Аудио: 160 Kbps, 44100 Hz, 2 ch, 0x55 = MPEG Layer-3, VBR
MediaInfo
Общее
Полное имя : Sticky Knickers_AVI_Split Scenes\Sticky Knickers\Sticky Knickers_Sc.01_Melissa Black.avi
Формат : AVI
Формат/Информация : Audio Video Interleave
Размер файла : 599 Мбайт
Продолжительность : 26 м.
Общий поток : 3181 Кбит/сек
Видео
Идентификатор : 0
Формат : MPEG-4 Visual
Идентификатор кодека : XVID
Идентификатор кодека/Подсказка : XviD
Продолжительность : 26 м.
Битрейт : 3004 Кбит/сек
Ширина : 864 пикс.
Высота : 480 пикс.
Соотношение сторон : 16:9
Частота кадров : 25,000 кадр/сек
Цветовое пространство : YUV
Подвыборка цветности : 4:2:0
Метод сжатия : С потерями
Бит/(Пиксели*Кадры) : 0.290
Размер потока : 566 Мбайт (94%)
Аудио
Идентификатор : 1
Формат : MPEG Audio
Идентификатор кодека : 55
Идентификатор кодека/Подсказка : MP3
Продолжительность : 26 м.
Битрейт : 160 Кбит/сек
Каналы : 2 канала
Частота : 44,1 КГц
Метод сжатия : С потерями
Размер потока : 30,1 Мбайт (5%)
Выравнивание : Соединение по промежуткам
Продолжительность промежутка : 26 мс. (0,65 видеокадр)
Скриншоты
Альтернатива

Sticky Knickers DVD9 (Автор - SonicVad)
Sticky Knickers DVD5 (Автор - lvovich133)
 
   
Торрент:
Зарегистрирован [05 сен 2015, 02:22]
Скачать торрент Магнет ссылка
Скачать торрент
[ Размер 16.46 КБ / Просмотров 2 ]
Статус:
Проверен
 
.torrent скачан: 0 раз
Хэш: e1bfce29a4c93b72d68385021dafd559d8235f88
Размер: 3.01 ГБ (3 227 106 376 байт)
 

Вернуться в Гонзо-фильмы / Gonzo

Кто сейчас на конференции

Сейчас эту тему просматривают: нет зарегистрированных пользователей и гости: 1


Ресурс не предоставляет электронные версии произведений, а занимается лишь коллекционированием и каталогизацией ссылок, присылаемых и публикуемых на форуме нашими читателями. Если вы являетесь правообладателем какого-либо представленного материала и не желаете чтобы ссылка на него находилась в нашем каталоге, свяжитесь с нами и мы незамедлительно удалим её. Файлы для обмена на трекере предоставлены пользователями сайта, и администрация не несёт ответственности за их содержание. Просьба не заливать файлы, защищенные авторскими правами, а также файлы нелегального содержания!
cron