Slippin In Through The Outdoor (Seymore Butts, Ultimate Video) [1996 г., Гонзо, DVDRip, Taylor Hayes , Morgan Fairlane , Gina Winters ]

 Статистика раздачи 
Размер: 1.35 ГБ   |  Зарегистрирован: 05 сен 2015, 02:22   |   .torrent скачан: 2 раз
Сидеров: 2  [ 0 байт/сек ]     Личеров: 10  [ 0 байт/сек ]  
  
Аватара пользователя
Раздал: 130.41 ГБ
Скачал: 45.05 ГБ
Ратио: 2.895
Сообщения: 349589
Зарегистрирован: 27 июл 2015, 20:38

Slippin In Through The Outdoor (Seymore Butts, Ultimate Video) [1996 г., Гонзо, DVDRip, Taylor Hayes , Morgan Fairlane , Gina Winters ]

Сообщение MalonE » 11 мар 2013, 09:54

Slippin In Through The Outdoor
Also Known As: Seymore Butts 26
#77Год производства: 1996 г.
Страна: США
Жанр: Гонзо
Продолжительность: 02:12:18
Язык: Английский
Режиссер: Seymore Butts
Студия: Ultimate Video
В ролях:
Actresses
Gina Winters [Anal]
Julie Rage
Morgan Fairlane [Anal DP]
Taylor Hayes [Anal Facial Squirt]
Actors
Hakan
Mark Davis
Ron Jeremy
Seymore Butts
Tom Byron
Описание: Очередная серия от Сеймура Баттса.
Scene Breakdowns
Scene 1. Morgan Fairlane, Hakan, Ron Jeremy
Scene 2. Gina Winters, Taylor Hayes, Seymore Butts
Scene 3. Taylor Hayes, Seymore Butts, Tom Byron
Scene 4. Gina Winters, Taylor Hayes, Tom Byron
Scene 5. Gina Winters, Taylor Hayes, Mark Davis
Доп. информация от KMP-плеера
I:\Фильмы\Seymore Butts 26\Seymore Butts - Slippin In Through The Outdoor Cd1.avi
General
Complete name : I:\Фильмы\Seymore Butts 26\Seymore Butts - Slippin In Through The Outdoor Cd1.avi
Format : AVI
Format/Info : Audio Video Interleave
File size : 692 MiB
Duration : 1h 5mn
Overall bit rate : 1 467 Kbps
Writing application : Nandub v1.0rc2
Writing library : Nandub build 1852/release
Video #0
ID : 0
Format : MPEG-4 Visual
Codec ID : DIV3
Codec ID/Hint : DivX 3 Low
Duration : 1h 5mn
Bit rate : 1 346 Kbps
Width : 512 pixels
Height : 384 pixels
Display aspect ratio : 4:3
Frame rate : 29.970 fps
Resolution : 24 bits
Bits/(Pixel*Frame) : 0.228
Stream size : 635 MiB (92%)
Audio #1
ID : 1
Format : MPEG Audio
Format version : Version 1
Format profile : Layer 3
Codec ID : 55
Codec ID/Hint : MP3
Duration : 1h 5mn
Bit rate mode : Variable
Bit rate : 109 Kbps
Nominal bit rate : 112 Kbps
Channel(s) : 2 channels
Sampling rate : 44.1 KHz
Resolution : 16 bits
Stream size : 50.6 MiB (7%)
Alignment : Aligned on interleaves
Interleave, duration : 26 ms (0.78 video frame)
Interleave, preload duration : 489 ms
Writing library : LAME3.93a
Encoding settings : -m j -V 4 -q 2 -lowpass 16 --abr 112
I:\Фильмы\Seymore Butts 26\Seymore Butts - Slippin In Through The Outdoor Cd2.avi
General
Complete name : I:\Фильмы\Seymore Butts 26\Seymore Butts - Slippin In Through The Outdoor Cd2.avi
Format : AVI
Format/Info : Audio Video Interleave
File size : 691 MiB
Duration : 1h 6mn
Overall bit rate : 1 457 Kbps
Writing application : Nandub v1.0rc2
Writing library : Nandub build 1852/release
Video #0
ID : 0
Format : MPEG-4 Visual
Codec ID : DIV3
Codec ID/Hint : DivX 3 Low
Duration : 1h 6mn
Bit rate : 1 332 Kbps
Width : 512 pixels
Height : 384 pixels
Display aspect ratio : 4:3
Frame rate : 29.970 fps
Resolution : 24 bits
Bits/(Pixel*Frame) : 0.226
Stream size : 632 MiB (91%)
Audio #1
ID : 1
Format : MPEG Audio
Format version : Version 1
Format profile : Layer 3
Codec ID : 55
Codec ID/Hint : MP3
Duration : 1h 6mn
Bit rate mode : Variable
Bit rate : 109 Kbps
Channel(s) : 2 channels
Sampling rate : 44.1 KHz
Resolution : 16 bits
Stream size : 52.5 MiB (8%)
Alignment : Aligned on interleaves
Interleave, duration : 26 ms (0.78 video frame)
Interleave, preload duration : 500 ms
Качество видео: DVDRip
Формат видео: AVI
Видео кодек: DivX
Аудио кодек: MP3
Видео: DivX 3 512x384 29.97fps
Аудио: MPEG Audio Layer 3 44100Hz stereo 109Kbps
Скриншоты и задняя часть коврика


 
   
Торрент:
Зарегистрирован [05 сен 2015, 02:22]
Скачать торрент Магнет ссылка
Скачать торрент
[ Размер 14.35 КБ / Просмотров 2 ]
Статус:
Проверен
 
.torrent скачан: 2 раз
Хэш: 908ffc31730a57b9e2a8c8337f7179d4ff529287
Размер: 1.35 ГБ (1 451 152 971 байт)
 

Вернуться в Гонзо-фильмы / Gonzo

Кто сейчас на конференции

Сейчас эту тему просматривают: нет зарегистрированных пользователей и гости: 1


Ресурс не предоставляет электронные версии произведений, а занимается лишь коллекционированием и каталогизацией ссылок, присылаемых и публикуемых на форуме нашими читателями. Если вы являетесь правообладателем какого-либо представленного материала и не желаете чтобы ссылка на него находилась в нашем каталоге, свяжитесь с нами и мы незамедлительно удалим её. Файлы для обмена на трекере предоставлены пользователями сайта, и администрация не несёт ответственности за их содержание. Просьба не заливать файлы, защищенные авторскими правами, а также файлы нелегального содержания!
cron