Please Cum Inside Me 2 / Пожалуйста Кончи В Меня 2 (White Ghetto) [2011 г., Creampie, Cumshots, Gonzo, Straight Sex, VOD]

 Статистика раздачи 
Размер: 1.09 ГБ   |  Зарегистрирован: 05 сен 2015, 02:21   |   .torrent скачан: 1 раз
Сидеров: 1  [ 0 байт/сек ]     Личеров: 0  [ 0 байт/сек ]  
  
В сети
Аватара пользователя
Раздал: 130.41 ГБ
Скачал: 45.05 ГБ
Ратио: 2.895
Сообщения: 349589
Зарегистрирован: 27 июл 2015, 20:38

Please Cum Inside Me 2 / Пожалуйста Кончи В Меня 2 (White Ghetto) [2011 г., Creampie, Cumshots, Gonzo, Straight Sex, VOD]

Сообщение MalonE » 11 мар 2013, 10:59

Please Cum Inside Me 2 / Пожалуйста Кончи В Меня 2Год производства: 2011 г.
Страна: USA
Жанр: Creampie, Cumshots, Gonzo, Straight Sex
Продолжительность: 02:08:50
Язык: Английский
Студия: White Ghetto
В ролях: Addison O'Riley, Brooklyn Jade, Julie Cash, Kendall Foxxx
Описание: Please Cum Inside Me 2 - White Ghetto Films. I know most girls want you to pump out your load where they can watch the huge gushing gooey mess of cum all over their bodies, but I'm a little different. i cum big time when I feel that hot, sticky stuff filling my wet, throbbing pussy. So don't pull out on me, keep ramming that big cock of yours until it explodes deep inside me, then we'll both cum like fucking porn stars!!
Качество видео: VOD
Формат видео: MP4
Видео кодек: H.264/AVC
Аудио кодек: AAC
MediaInfo:
Scene 1
General
Complete name : \Please Cum Inside Me 2\Scene 1 - Addison O'Riley.mp4
Format : MPEG-4
Format profile : Base Media / Version 2
Codec ID : mp42
File size : 297 MiB
Duration : 34mn 9s
Overall bit rate mode : Variable
Overall bit rate : 1 216 Kbps
Encoded date : UTC 2011-12-21 18:46:35
Tagged date : UTC 2011-12-21 19:43:49
Writing application : HandBrake 0.9.3 2008112300
Video
ID : 1
Format : AVC
Format/Info : Advanced Video Codec
Format profile : [email protected]
Format settings, CABAC : Yes
Format settings, ReFrames : 3 frames
Codec ID : avc1
Codec ID/Info : Advanced Video Coding
Duration : 34mn 9s
Bit rate mode : Variable
Bit rate : 1 136 Kbps
Width : 640 pixels
Height : 480 pixels
Display aspect ratio : 4:3
Frame rate mode : Variable
Frame rate : 29.970 fps
Minimum frame rate : 15.863 fps
Maximum frame rate : 30.000 fps
Color space : YUV
Chroma subsampling : 4:2:0
Bit depth : 8 bits
Scan type : Progressive
Bits/(Pixel*Frame) : 0.123
Stream size : 278 MiB (93%)
Writing library : x264 core 65
Encoding settings : cabac=1 / ref=3 / deblock=1:0:0 / analyse=0x3:0x133 / me=umh / subme=9 / psy_rd=1.0:1.0 / mixed_ref=1 / me_range=16 / chroma_me=1 / trellis=1 / 8x8dct=1 / cqm=0 / deadzone=21,11 / chroma_qp_offset=-4 / threads=12 / nr=150 / decimate=1 / mbaff=0 / bframes=6 / b_pyramid=1 / b_adapt=1 / b_bias=0 / direct=3 / wpredb=1 / keyint=30 / keyint_min=16 / scenecut=40(pre) / rc=2pass / bitrate=1136 / ratetol=1.0 / qcomp=0.60 / qpmin=10 / qpmax=51 / qpstep=4 / cplxblur=20.0 / qblur=0.5 / ip_ratio=1.40 / pb_ratio=1.30 / aq=1:1.00
Language : English
Encoded date : UTC 2011-12-21 18:46:35
Tagged date : UTC 2011-12-21 19:43:49
Color primaries : BT.601-6 525, BT.1358 525, BT.1700 NTSC, SMPTE 170M
Transfer characteristics : BT.709-5, BT.1361
Matrix coefficients : BT.601-6 525, BT.1358 525, BT.1700 NTSC, SMPTE 170M
Audio
ID : 2
Format : AAC
Format/Info : Advanced Audio Codec
Format profile : LC
Codec ID : 40
Duration : 34mn 9s
Bit rate mode : Variable
Bit rate : 76.0 Kbps
Maximum bit rate : 92.7 Kbps
Channel(s) : 2 channels
Channel positions : Front: L R
Sampling rate : 22.05 KHz
Compression mode : Lossy
Stream size : 18.6 MiB (6%)
Encoded date : UTC 2011-12-21 18:46:35
Tagged date : UTC 2011-12-21 19:43:40
Scene 2
General
Complete name : \Please Cum Inside Me 2\Scene 2 - Brooklyn Jade.mp4
Format : MPEG-4
Format profile : Base Media / Version 2
Codec ID : mp42
File size : 258 MiB
Duration : 29mn 42s
Overall bit rate mode : Variable
Overall bit rate : 1 216 Kbps
Encoded date : UTC 2011-12-21 18:44:10
Tagged date : UTC 2011-12-21 19:42:07
Writing application : HandBrake 0.9.3 2008112300
Video
ID : 1
Format : AVC
Format/Info : Advanced Video Codec
Format profile : [email protected]
Format settings, CABAC : Yes
Format settings, ReFrames : 3 frames
Codec ID : avc1
Codec ID/Info : Advanced Video Coding
Duration : 29mn 41s
Bit rate mode : Variable
Bit rate : 1 136 Kbps
Width : 640 pixels
Height : 480 pixels
Display aspect ratio : 4:3
Frame rate mode : Variable
Frame rate : 29.970 fps
Minimum frame rate : 15.863 fps
Maximum frame rate : 30.000 fps
Color space : YUV
Chroma subsampling : 4:2:0
Bit depth : 8 bits
Scan type : Progressive
Bits/(Pixel*Frame) : 0.123
Stream size : 241 MiB (93%)
Writing library : x264 core 65
Encoding settings : cabac=1 / ref=3 / deblock=1:0:0 / analyse=0x3:0x133 / me=umh / subme=9 / psy_rd=1.0:1.0 / mixed_ref=1 / me_range=16 / chroma_me=1 / trellis=1 / 8x8dct=1 / cqm=0 / deadzone=21,11 / chroma_qp_offset=-4 / threads=12 / nr=150 / decimate=1 / mbaff=0 / bframes=6 / b_pyramid=1 / b_adapt=1 / b_bias=0 / direct=3 / wpredb=1 / keyint=30 / keyint_min=16 / scenecut=40(pre) / rc=2pass / bitrate=1136 / ratetol=1.0 / qcomp=0.60 / qpmin=10 / qpmax=51 / qpstep=4 / cplxblur=20.0 / qblur=0.5 / ip_ratio=1.40 / pb_ratio=1.30 / aq=1:1.00
Language : English
Encoded date : UTC 2011-12-21 18:44:10
Tagged date : UTC 2011-12-21 19:42:07
Color primaries : BT.601-6 525, BT.1358 525, BT.1700 NTSC, SMPTE 170M
Transfer characteristics : BT.709-5, BT.1361
Matrix coefficients : BT.601-6 525, BT.1358 525, BT.1700 NTSC, SMPTE 170M
Audio
ID : 2
Format : AAC
Format/Info : Advanced Audio Codec
Format profile : LC
Codec ID : 40
Duration : 29mn 42s
Bit rate mode : Variable
Bit rate : 76.0 Kbps
Maximum bit rate : 95.3 Kbps
Channel(s) : 2 channels
Channel positions : Front: L R
Sampling rate : 22.05 KHz
Compression mode : Lossy
Stream size : 16.1 MiB (6%)
Encoded date : UTC 2011-12-21 18:44:10
Tagged date : UTC 2011-12-21 19:41:58
Scene 3
General
Complete name : \Please Cum Inside Me 2\Scene 3 - Julie Cash.mp4
Format : MPEG-4
Format profile : Base Media / Version 2
Codec ID : mp42
File size : 284 MiB
Duration : 32mn 35s
Overall bit rate mode : Variable
Overall bit rate : 1 216 Kbps
Encoded date : UTC 2011-12-21 18:45:53
Tagged date : UTC 2011-12-21 19:49:57
Writing application : HandBrake 0.9.3 2008112300
Video
ID : 1
Format : AVC
Format/Info : Advanced Video Codec
Format profile : [email protected]
Format settings, CABAC : Yes
Format settings, ReFrames : 3 frames
Codec ID : avc1
Codec ID/Info : Advanced Video Coding
Duration : 32mn 35s
Bit rate mode : Variable
Bit rate : 1 136 Kbps
Width : 640 pixels
Height : 480 pixels
Display aspect ratio : 4:3
Frame rate mode : Variable
Frame rate : 29.970 fps
Minimum frame rate : 15.863 fps
Maximum frame rate : 30.000 fps
Color space : YUV
Chroma subsampling : 4:2:0
Bit depth : 8 bits
Scan type : Progressive
Bits/(Pixel*Frame) : 0.123
Stream size : 265 MiB (93%)
Writing library : x264 core 65
Encoding settings : cabac=1 / ref=3 / deblock=1:0:0 / analyse=0x3:0x133 / me=umh / subme=9 / psy_rd=1.0:1.0 / mixed_ref=1 / me_range=16 / chroma_me=1 / trellis=1 / 8x8dct=1 / cqm=0 / deadzone=21,11 / chroma_qp_offset=-4 / threads=12 / nr=150 / decimate=1 / mbaff=0 / bframes=6 / b_pyramid=1 / b_adapt=1 / b_bias=0 / direct=3 / wpredb=1 / keyint=30 / keyint_min=16 / scenecut=40(pre) / rc=2pass / bitrate=1136 / ratetol=1.0 / qcomp=0.60 / qpmin=10 / qpmax=51 / qpstep=4 / cplxblur=20.0 / qblur=0.5 / ip_ratio=1.40 / pb_ratio=1.30 / aq=1:1.00
Language : English
Encoded date : UTC 2011-12-21 18:45:53
Tagged date : UTC 2011-12-21 19:49:57
Color primaries : BT.601-6 525, BT.1358 525, BT.1700 NTSC, SMPTE 170M
Transfer characteristics : BT.709-5, BT.1361
Matrix coefficients : BT.601-6 525, BT.1358 525, BT.1700 NTSC, SMPTE 170M
Audio
ID : 2
Format : AAC
Format/Info : Advanced Audio Codec
Format profile : LC
Codec ID : 40
Duration : 32mn 35s
Bit rate mode : Variable
Bit rate : 76.0 Kbps
Maximum bit rate : 93.9 Kbps
Channel(s) : 2 channels
Channel positions : Front: L R
Sampling rate : 22.05 KHz
Compression mode : Lossy
Stream size : 17.7 MiB (6%)
Encoded date : UTC 2011-12-21 18:45:53
Tagged date : UTC 2011-12-21 19:49:47
Scene 4
General
Complete name : \Please Cum Inside Me 2\Scene 4 - Kendall Foxxx.mp4
Format : MPEG-4
Format profile : Base Media / Version 2
Codec ID : mp42
File size : 282 MiB
Duration : 32mn 23s
Overall bit rate mode : Variable
Overall bit rate : 1 216 Kbps
Encoded date : UTC 2011-12-21 18:40:04
Tagged date : UTC 2011-12-21 19:42:49
Writing application : HandBrake 0.9.3 2008112300
Video
ID : 1
Format : AVC
Format/Info : Advanced Video Codec
Format profile : [email protected]
Format settings, CABAC : Yes
Format settings, ReFrames : 3 frames
Codec ID : avc1
Codec ID/Info : Advanced Video Coding
Duration : 32mn 23s
Bit rate mode : Variable
Bit rate : 1 136 Kbps
Width : 640 pixels
Height : 480 pixels
Display aspect ratio : 4:3
Frame rate mode : Variable
Frame rate : 29.970 fps
Minimum frame rate : 15.863 fps
Maximum frame rate : 30.000 fps
Color space : YUV
Chroma subsampling : 4:2:0
Bit depth : 8 bits
Scan type : Progressive
Bits/(Pixel*Frame) : 0.123
Stream size : 263 MiB (93%)
Writing library : x264 core 65
Encoding settings : cabac=1 / ref=3 / deblock=1:0:0 / analyse=0x3:0x133 / me=umh / subme=9 / psy_rd=1.0:1.0 / mixed_ref=1 / me_range=16 / chroma_me=1 / trellis=1 / 8x8dct=1 / cqm=0 / deadzone=21,11 / chroma_qp_offset=-4 / threads=12 / nr=150 / decimate=1 / mbaff=0 / bframes=6 / b_pyramid=1 / b_adapt=1 / b_bias=0 / direct=3 / wpredb=1 / keyint=30 / keyint_min=16 / scenecut=40(pre) / rc=2pass / bitrate=1136 / ratetol=1.0 / qcomp=0.60 / qpmin=10 / qpmax=51 / qpstep=4 / cplxblur=20.0 / qblur=0.5 / ip_ratio=1.40 / pb_ratio=1.30 / aq=1:1.00
Language : English
Encoded date : UTC 2011-12-21 18:40:04
Tagged date : UTC 2011-12-21 19:42:49
Color primaries : BT.601-6 525, BT.1358 525, BT.1700 NTSC, SMPTE 170M
Transfer characteristics : BT.709-5, BT.1361
Matrix coefficients : BT.601-6 525, BT.1358 525, BT.1700 NTSC, SMPTE 170M
Audio
ID : 2
Format : AAC
Format/Info : Advanced Audio Codec
Format profile : LC
Codec ID : 40
Duration : 32mn 23s
Bit rate mode : Variable
Bit rate : 75.7 Kbps
Maximum bit rate : 91.5 Kbps
Channel(s) : 2 channels
Channel positions : Front: L R
Sampling rate : 22.05 KHz
Compression mode : Lossy
Stream size : 17.6 MiB (6%)
Encoded date : UTC 2011-12-21 18:40:04
Tagged date : UTC 2011-12-21 19:42:40
Скриншоты



 
   
Торрент:
Зарегистрирован [05 сен 2015, 02:21]
Скачать торрент Магнет ссылка
Скачать торрент
[ Размер 11.76 КБ / Просмотров 3 ]
Статус:
Проверен
 
.torrent скачан: 1 раз
Хэш: 5a5118b5ef9647eecb8e90157826ab39b8bb683f
Размер: 1.09 ГБ (1 175 454 027 байт)
 

Вернуться в Гонзо-фильмы / Gonzo

Кто сейчас на конференции

Сейчас эту тему просматривают: нет зарегистрированных пользователей и гости: 1


Ресурс не предоставляет электронные версии произведений, а занимается лишь коллекционированием и каталогизацией ссылок, присылаемых и публикуемых на форуме нашими читателями. Если вы являетесь правообладателем какого-либо представленного материала и не желаете чтобы ссылка на него находилась в нашем каталоге, свяжитесь с нами и мы незамедлительно удалим её. Файлы для обмена на трекере предоставлены пользователями сайта, и администрация не несёт ответственности за их содержание. Просьба не заливать файлы, защищенные авторскими правами, а также файлы нелегального содержания!
cron