Ass Jazz 3 / Анальный джаз 3 (Jazz Duro, Evil Angel) [2006 г., All Sex, Anal, Gonzo, Threesomes & More, hardcore, DVDRip]

 Статистика раздачи 
Размер: 1.99 ГБ   |  Зарегистрирован: 05 сен 2015, 02:21   |   .torrent скачан: 3 раз
Сидеров: 1  [ 0 байт/сек ]     Личеров: 1  [ 0 байт/сек ]  
  
Аватара пользователя
Раздал: 130.41 ГБ
Скачал: 45.05 ГБ
Ратио: 2.895
Сообщения: 349589
Зарегистрирован: 27 июл 2015, 20:38

Ass Jazz 3 / Анальный джаз 3 (Jazz Duro, Evil Angel) [2006 г., All Sex, Anal, Gonzo, Threesomes & More, hardcore, DVDRip]

Сообщение MalonE » 11 мар 2013, 11:03

Ass Jazz 3 / Анальный джаз 3
#77Год производства: 2006
Страна: США
Жанр: All Sex, Anal, Gonzo, Threesomes & More, hardcore
Продолжительность: 2:50:25
Язык: Английский
Режиссер: Jazz Duro
Студия: Evil Angel
В ролях: Melissa Lauren, Sandra Romain, Judith Fox, Jazz Duro, Andy Brown, Angela Winter
Дополнительно:
xcritic.com
iafd.com
cduniverse.com
Описание: Джаз Дуро большой затейник! он не может угомониться пока не накончает в чью-нибудь похотливую попку. Ну а что же наши зведные шлюшки Мелисса Лорен и Сандра? им и этого мало! Им надо чтоб их задницы были краснее чам самые шгучие перчики, которые им засунут в их уютные гнездышка. Но не попкой единой наши добрые знакомые сыты! а еще они в ротик хотят получить подарок! Ведь Джаз пока добрый сейчас!Но постойте! им мало одного члена, им подавай еще и игрушки, но не детские, а другие, которые резниновые
Качество видео: DVDRip
Формат видео: WMV
Видео кодек: WMV3
Аудио кодек: WMA
Видео: VC-1 (WMV3), 640x480 1600 Kbps, 29.970 fps
Аудио: WMA (WMA2), 64.0 Kbps (CBR), 44.1 KHz, 2 channels, 1 stream
Скринлист
Скринлист II
Скринлист III
подробные технические данные
Media Player Classic - Home Cinema
General
Complete name :Ass Jazz 3.wmv
Format : Windows Media
File size : 1.99 GiB
Duration : 2h 50mn
Overall bit rate mode : Constant
Overall bit rate : 1 672 Kbps
Maximum Overall bit rate : 1 681 Kbps
Movie name : Ass Jazz 3
Performer : Evil Angel
Encoded date : UTC 2011-06-27 15:34:19.400
Copyright : 2006
Video
ID : 2
Format : VC-1
Format profile : MP
Codec ID : WMV3
Codec ID/Info : Windows Media Video 9
Codec ID/Hint : WMV3
Description of the codec : Windows Media Video 9 - Professional
Duration : 2h 50mn
Bit rate mode : Constant
Bit rate : 1 600 Kbps
Width : 640 pixels
Height : 480 pixels
Display aspect ratio : 4:3
Frame rate : 29.970 fps
Bit depth : 8 bits
Scan type : Progressive
Compression mode : Lossy
Bits/(Pixel*Frame) : 0.174
Stream size : 1.90 GiB (96%)
Language : English (US)
Audio
ID : 1
Format : WMA
Format version : Version 2
Codec ID : 161
Codec ID/Info : Windows Media Audio
Description of the codec : Windows Media Audio 9.1 - 64 kbps, 44 kHz, stereo (A/V) 1-pass CBR
Duration : 2h 50mn
Bit rate mode : Constant
Bit rate : 64.0 Kbps
Channel(s) : 2 channels
Sampling rate : 44.1 KHz
Bit depth : 16 bits
Stream size : 78.1 MiB (4%)
Language : English (US)
KMPlayer (Kang Multimedia Player)
Ass Jazz 3.wmv
General
Complete name : Ass Jazz 3.wmv
Format : Windows Media
File size : 1.99 GiB
Duration : 2h 50mn
Overall bit rate mode : Constant
Overall bit rate : 1 672 Kbps
Maximum Overall bit rate : 1 681 Kbps
Movie name : Ass Jazz 3
Performer : Evil Angel
Encoded date : UTC 2011-06-27 15:34:19.400
Copyright : 2006
Video #2
ID : 2
Format : VC-1
Format profile : MP
Codec ID : WMV3
Codec ID/Info : Windows Media Video 9
Codec ID/Hint : WMV3
Description of the codec : Windows Media Video 9 - Professional
Duration : 2h 50mn
Bit rate mode : Constant
Bit rate : 1 600 Kbps
Width : 640 pixels
Height : 480 pixels
Display aspect ratio : 4:3
Frame rate : 29.970 fps
Bit depth : 8 bits
Scan type : Progressive
Compression mode : Lossy
Bits/(Pixel*Frame) : 0.174
Stream size : 1.90 GiB (96%)
Language : English (US)
Audio #1
ID : 1
Format : WMA
Format version : Version 2
Codec ID : 161
Codec ID/Info : Windows Media Audio
Description of the codec : Windows Media Audio 9.1 - 64 kbps, 44 kHz, stereo (A/V) 1-pass CBR
Duration : 2h 50mn
Bit rate mode : Constant
Bit rate : 64.0 Kbps
Channel(s) : 2 channels
Sampling rate : 44.1 KHz
Bit depth : 16 bits
Stream size : 78.1 MiB (4%)
Language : English (US)
 
   
Торрент:
Зарегистрирован [05 сен 2015, 02:21]
Скачать торрент Магнет ссылка
Скачать торрент
[ Размер 20.29 КБ / Просмотров 1 ]
Статус:
Проверен
 
.torrent скачан: 3 раз
Хэш: 22136453c6d956706a0ce7dd2b8314bd4afb1b0e
Размер: 1.99 ГБ (2 137 560 315 байт)
 

Вернуться в Гонзо-фильмы / Gonzo

Кто сейчас на конференции

Сейчас эту тему просматривают: нет зарегистрированных пользователей и гости: 1


Ресурс не предоставляет электронные версии произведений, а занимается лишь коллекционированием и каталогизацией ссылок, присылаемых и публикуемых на форуме нашими читателями. Если вы являетесь правообладателем какого-либо представленного материала и не желаете чтобы ссылка на него находилась в нашем каталоге, свяжитесь с нами и мы незамедлительно удалим её. Файлы для обмена на трекере предоставлены пользователями сайта, и администрация не несёт ответственности за их содержание. Просьба не заливать файлы, защищенные авторскими правами, а также файлы нелегального содержания!
cron