Latin Ass Factor / Латинский жопный фактор (Pandemonium, Jenaveve Joli) [2009 г., Anal, Latina, Interracial, Creampie, Tattoo, Foursome, DB (Split scenes), DVDRip]

 Статистика раздачи 
Размер: 1.29 ГБ   |  Зарегистрирован: 05 сен 2015, 02:21   |   .torrent скачан: 0 раз
Сидеров: 3  [ 0 байт/сек ]     Личеров: 0  [ 0 байт/сек ]  
  
Аватара пользователя
Раздал: 130.41 ГБ
Скачал: 45.05 ГБ
Ратио: 2.895
Сообщения: 349589
Зарегистрирован: 27 июл 2015, 20:38

Latin Ass Factor / Латинский жопный фактор (Pandemonium, Jenaveve Joli) [2009 г., Anal, Latina, Interracial, Creampie, Tattoo, Foursome, DB (Split scenes), DVDRip]

Сообщение MalonE » 11 мар 2013, 11:24

Latin Ass Factor / Латинский жопный фактор Год производства: 2009 г.
Жанр: Anal, Latina, Creampie, Tattoo, Foursome, DB
Продолжительность: 109 mins
Язык: Английский
Студия: pandemonium
В ролях: jenaveve jolie, dulce, monique madison, kristine, adara
Описание: This movie is packed full of gorgeous Latina girls who love to suck and fuck cock! Don't you wish that was your meat in these tight little holes? You get the next best thing as you can watch these hotties get plowed and pumped full of cum.Качество видео: DVDRip
Формат видео: AVI
Видео кодек: XviD
Аудио кодек: MP3
подробно
Format : AVI
Format/Info : Audio Video Interleave
File size : 348 MiB
Duration : 29mn 4s
Overall bit rate : 1 672 Kbps
Writing application : MEncoder 1.0rc1-4.1.2
Writing library : MPlayer
Video
ID : 0
Format : MPEG-4 Visual
Format profile : Advanced [email protected]
Format settings, BVOP : Yes
Format settings, QPel : No
Format settings, GMC : No warppoints
Format settings, Matrix : Default (H.263)
Codec ID : XVID
Codec ID/Hint : XviD
Duration : 29mn 4s
Bit rate : 1 583 Kbps
Width : 640 pixels
Height : 480 pixels
Display aspect ratio : 4:3
Frame rate : 30.303 fps
Color space : YUV
Chroma subsampling : 4:2:0
Bit depth : 8 bits
Scan type : Progressive
Bits/(Pixel*Frame) : 0.170
Stream size : 329 MiB (95%)
Writing library : XviD 1.1.0 (UTC 2005-11-22)
Audio
ID : 1
Format : MPEG Audio
Format version : Version 1
Format profile : Layer 3
Mode : Joint stereo
Mode extension : MS Stereo
Codec ID : 55
Codec ID/Hint : MP3
Duration : 29mn 4s
Bit rate mode : Variable
Bit rate : 75.2 Kbps
Channel(s) : 2 channels
Sampling rate : 48.0 KHz
Stream size : 15.7 MiB (5%)
Alignment : Aligned on interleaves
Interleave, duration : 24 ms (0.73 video frame)
Interleave, preload duration : 461 ms
Скриншоты




 
   
Торрент:
Зарегистрирован [05 сен 2015, 02:21]
Скачать торрент Магнет ссылка
Скачать торрент
[ Размер 13.63 КБ / Просмотров 2 ]
Статус:
Проверен
 
.torrent скачан: 0 раз
Хэш: 7e8ad85b288f7332968f39bb9a6ac68a3c8778c3
Размер: 1.29 ГБ (1 385 102 259 байт)
 

Вернуться в Гонзо-фильмы / Gonzo

Кто сейчас на конференции

Сейчас эту тему просматривают: нет зарегистрированных пользователей и гости: 1


Ресурс не предоставляет электронные версии произведений, а занимается лишь коллекционированием и каталогизацией ссылок, присылаемых и публикуемых на форуме нашими читателями. Если вы являетесь правообладателем какого-либо представленного материала и не желаете чтобы ссылка на него находилась в нашем каталоге, свяжитесь с нами и мы незамедлительно удалим её. Файлы для обмена на трекере предоставлены пользователями сайта, и администрация не несёт ответственности за их содержание. Просьба не заливать файлы, защищенные авторскими правами, а также файлы нелегального содержания!
cron