Sodomized Sluts / Оттраханные в зад шлюхи (Gazzman, Harmony Films) [2010 г., All sex, DVDRip-AVC]

 Статистика раздачи 
Размер: 2.96 ГБ   |  Зарегистрирован: 05 сен 2015, 02:20   |   .torrent скачан: 0 раз
Сидеров: 3  [ 0 байт/сек ]     Личеров: 0  [ 0 байт/сек ]  
  
В сети
Аватара пользователя
Раздал: 130.41 ГБ
Скачал: 45.05 ГБ
Ратио: 2.895
Сообщения: 349589
Зарегистрирован: 27 июл 2015, 20:38

Sodomized Sluts / Оттраханные в зад шлюхи (Gazzman, Harmony Films) [2010 г., All sex, DVDRip-AVC]

Сообщение MalonE » 11 мар 2013, 11:29

Sodomized Sluts / Оттраханные в зад шлюхи#77Год производства: 2010 г.
Страна: Europe
Жанр: All sex
Продолжительность: 02:41:05
Язык: Английский
Режиссер: Gazzman
Студия: Harmony Films
Навигация по главам : Есть-В ролях: Dona Bell, Roxy Taggart, Hennessy, Sharon Lee, Valentina Blue, George Uhl, Olivier Sanchez
Описание:
Cum Dripping Sluts! Huge Gaping Assholes!
Valentina Blue - Roughly Fucked And Sodomized!
Roxy Roggart - Butthole Whore!
Hennessy - Young Starlet Balled In The Ass!
Sharon Lee - Stretched Beyond Belief!
Donna Bell - Ass Broken!
-Качество видео: DVDRip-AVC Исходник
Формат видео: MKV
Видео кодек: H.264/AVC
Аудио кодек: AC3
Видео: MPEG4 Video (H264) / 2500 Kbps 720x480 (853:480) 29.97fps
Аудио: Dolby AC3 48000Hz 128 Kbps 2ch stereo Front: L R
Media Info
Общее
Уникальный идентификатор : 214579222902624108088447032793769561310 (0xA16E74805451465CB52DD523F175CCDE)
Полное имя : Sodomized Sluts\Sodomized Sluts_AVC.mkv
Формат : Matroska
Версия формата : Version 2
Размер файла : 2,96 Гбайт
Продолжительность : 2 ч. 41 м.
Общий поток : 2631 Кбит/сек
Название фильма : Sodomized Sluts (rip by smithland)
Дата кодирования : UTC 2012-03-06 12:10:35
Программа кодирования : mkvmerge v5.3.0 ('I could have danced')
Библиотека кодирования : libebml v1.2.3 + libmatroska v1.3.0
Attachment : Yes / Yes
Видео
Идентификатор : 1
Формат : AVC
Формат/Информация : Advanced Video Codec
Профиль формата : [email protected]
Параметр CABAC формата : Да
Параметр ReFrames формата : 6 кадров
Идентификатор кодека : V_MPEG4/ISO/AVC
Продолжительность : 2 ч. 41 м.
Битрейт : 2500 Кбит/сек
Ширина : 720 пикселей
Высота : 480 пикселей
Соотношение сторон : 16:9
Соотношение сторон в оригинале : 16:9
Частота кадров : 29,970 кадров/сек
Стандарт вещания : NTSC
Цветовое пространство : YUV
Субдискретизация насыщенности : 4:2:0
Битовая глубина : 8 бит
Тип развёртки : Прогрессивная
Бит/(Пиксели*Кадры) : 0.241
Размер потока : 2,76 Гбайт (93%)
Библиотека кодирования : x264 core 120
Настройки программы : cabac=1 / ref=6 / deblock=1:-1:0 / analyse=0x3:0x133 / me=umh / subme=10 / psy=1 / psy_rd=1.00:0.50 / mixed_ref=1 / me_range=32 / chroma_me=1 / trellis=2 / 8x8dct=1 / cqm=0 / deadzone=21,11 / fast_pskip=1 / chroma_qp_offset=-4 / threads=6 / sliced_threads=0 / nr=0 / decimate=0 / interlaced=0 / bluray_compat=0 / constrained_intra=0 / bframes=4 / b_pyramid=2 / b_adapt=1 / b_bias=0 / direct=1 / weightb=1 / open_gop=0 / weightp=2 / keyint=300 / keyint_min=30 / scenecut=40 / intra_refresh=0 / rc_lookahead=50 / rc=2pass / mbtree=1 / bitrate=2500 / ratetol=1.0 / qcomp=0.60 / qpmin=3 / qpmax=69 / qpstep=4 / cplxblur=20.0 / qblur=0.5 / ip_ratio=1.40 / aq=1:1.00
Язык : English
Default : Да
Forced : Да
Основные цвета : BT.601-6 525, BT.1358 525, BT.1700 NTSC, SMPTE 170M
Характеристики трансфера : BT.709-5, BT.1361
Коэффициенты матрицы : BT.601-6 525, BT.1358 525, BT.1700 NTSC, SMPTE 170M
Аудио
Идентификатор : 2
Формат : AC-3
Формат/Информация : Audio Coding 3
Расширение режима : CM (complete main)
Идентификатор кодека : A_AC3
Продолжительность : 2 ч. 41 м.
Вид битрейта : Постоянный
Битрейт : 128 Кбит/сек
Каналы : 2 канала
Расположение каналов : Front: L R
Частота : 48,0 КГц
Битовая глубина : 16 бит
Метод сжатия : С потерями
Размер потока : 148 Мбайт (5%)
Язык : English
Default : Да
Forced : Да
Меню
00:00:00.000 : en:Chapter 1
00:04:59.832 : en:Chapter 2
00:09:59.765 : en:Chapter 3
00:15:00.132 : en:Chapter 4
00:19:59.731 : en:Chapter 5
00:26:42.634 : en:Chapter 6
00:29:01.206 : en:Chapter 7
00:35:00.298 : en:Chapter 8
00:40:00.097 : en:Chapter 9
00:45:00.030 : en:Chapter 10
00:49:59.963 : en:Chapter 11
00:55:00.263 : en:Chapter 12
01:00:00.096 : en:Chapter 13
01:01:27.684 : en:Chapter 14
01:03:03.112 : en:Chapter 15
01:10:00.196 : en:Chapter 16
01:15:00.429 : en:Chapter 17
01:18:17.626 : en:Chapter 18
01:20:30.692 : en:Chapter 19
01:25:00.428 : en:Chapter 20
01:28:53.661 : en:Chapter 21
01:31:42.363 : en:Chapter 22
01:34:00.001 : en:Chapter 23
01:35:00.561 : en:Chapter 24
01:38:16.257 : en:Chapter 25
01:40:53.914 : en:Chapter 26
01:45:00.794 : en:Chapter 27
01:50:00.393 : en:Chapter 28
01:55:00.693 : en:Chapter 29
02:00:00.493 : en:Chapter 30
02:05:00.926 : en:Chapter 31
02:12:42.888 : en:Chapter 32
02:13:34.172 : en:Chapter 33
02:15:00.759 : en:Chapter 34
02:20:00.625 : en:Chapter 35
02:25:00.591 : en:Chapter 36
02:30:00.658 : en:Chapter 37
02:35:00.891 : en:Chapter 38
02:37:29.206 : en:Chapter 39
02:39:22.319 : en:Chapter 40
02:41:14.297 : en:Chapter 41
-
Скриншоты с учётом анаморфа

-
 
   
Торрент:
Зарегистрирован [05 сен 2015, 02:20]
Скачать торрент Магнет ссылка
Скачать торрент
[ Размер 30.06 КБ / Просмотров 0 ]
Статус:
Проверен
 
.torrent скачан: 0 раз
Хэш: e00edf92391f831c687a81daa83fa61d5ebb5240
Размер: 2.96 ГБ (3 182 104 134 байт)
 

Вернуться в Гонзо-фильмы / Gonzo

Кто сейчас на конференции

Сейчас эту тему просматривают: нет зарегистрированных пользователей и гости: 1


Ресурс не предоставляет электронные версии произведений, а занимается лишь коллекционированием и каталогизацией ссылок, присылаемых и публикуемых на форуме нашими читателями. Если вы являетесь правообладателем какого-либо представленного материала и не желаете чтобы ссылка на него находилась в нашем каталоге, свяжитесь с нами и мы незамедлительно удалим её. Файлы для обмена на трекере предоставлены пользователями сайта, и администрация не несёт ответственности за их содержание. Просьба не заливать файлы, защищенные авторскими правами, а также файлы нелегального содержания!
cron