Rookie Cookies 4 / Новенькие печенюшки 4 (разбит на эпизоды) (David Luger, Elegant Angel) [2000 г., Gonzo, Amateur, DVDRip]

 Статистика раздачи 
Размер: 2.04 ГБ   |  Зарегистрирован: 05 сен 2015, 02:19   |   .torrent скачан: 0 раз
Сидеров: 3  [ 0 байт/сек ]     Личеров: 0  [ 0 байт/сек ]  
  
В сети
Аватара пользователя
Раздал: 130.41 ГБ
Скачал: 45.05 ГБ
Ратио: 2.895
Сообщения: 349589
Зарегистрирован: 27 июл 2015, 20:38

Rookie Cookies 4 / Новенькие печенюшки 4 (разбит на эпизоды) (David Luger, Elegant Angel) [2000 г., Gonzo, Amateur, DVDRip]

Сообщение MalonE » 11 мар 2013, 12:22

Rookie Cookies #4 / Новенькие печенюшки #4 (разбит на эпизоды) -Год производства: 2000 г.
Страна: США
Жанр: Gonzo, Amateur
Продолжительность: 2ч 01мин
Язык: Английский
Режиссер: David Luger
Студия: Elegant Angel
В ролях: Charlene Aspen, Julianna Sterling, Nature Blossom, Allysa Haven, Tyce Bune, Lexington Steele, David Luger.
Описание: "Julianna Sterling's 20-years-old and another horny girl from the deep south! She loves to tease and please. She's the kind of sexually aggressive girl I used to fantasize about meeting as a teenager! (I guess I should have been born down south!)Charlene Aspen's a 24-year-old Hispanic lovely from New York. After just a few months in porn, she's earned a reputation for out-fucking all her male co-stars. So, I put her with Lexington Steele, a guy known for out-fucking all his female co-stars. You decide who out **cks who here!The adventure begins with Nature Blossom, a horny 18 year-old from the deep south, appearing in her 3rd scene!! After providing me with one of the most memorable"
http://www.excaliburfilms.com/AdultDVD/62835D4_Rook...ookies_4_dvd.htm
Качество видео: DVDRip
Формат видео: MP4
Видео кодек: H.264/AVC
Аудио кодек: AAC
Видео: MPEG4 Video (H264) 640x480
Аудио: AAC 48000Hz stereo 1536kbps
подробные тех.данные для одного из эпизодов
Format : MPEG-4
Format profile : Base Media / Version 2
Codec ID : mp42
File size : 655 MiB
Duration : 38mn 1s
Overall bit rate : 2 409 Kbps
Movie name : Rookie Cookies #4, Scene 1
Album : Rookie Cookies #4
Track name/Position : 1
Track name/Total : 4
Performer : Nature Blossom
Screenplay by : Elegant Angel
Encoded date : UTC 2008-05-27 00:10:11
Tagged date : UTC 2008-05-27 00:11:55
Writing application : mp4creator 1.5.0.1
Video
ID : 201
Format : AVC
Format/Info : Advanced Video Codec
Format profile : [email protected]
Format settings, CABAC : No
Format settings, ReFrames : 3 frames
Codec ID : avc1
Codec ID/Info : Advanced Video Coding
Duration : 38mn 1s
Bit rate mode : Variable
Bit rate : 2 276 Kbps
Width : 640 pixels
Height : 480 pixels
Display aspect ratio : 4:3
Frame rate mode : Variable
Frame rate : 29.970 fps
Minimum frame rate : 29.960 fps
Maximum frame rate : 29.970 fps
Color space : YUV
Chroma subsampling : 4:2:0
Bit depth : 8 bits
Scan type : Progressive
Bits/(Pixel*Frame) : 0.247
Stream size : 619 MiB (94%)
Encoded date : UTC 2008-05-27 00:10:11
Tagged date : UTC 2008-05-26 00:11:55
Audio
ID : 101
Format : AAC
Format/Info : Advanced Audio Codec
Format version : Version 4
Format profile : LC
Format settings, SBR : No
Codec ID : 40
Duration : 38mn 1s
Bit rate mode : Variable
Bit rate : 128 Kbps
Maximum bit rate : 159 Kbps
Channel(s) : 2 channels
Channel positions : Front: L R
Sampling rate : 48.0 KHz
Stream size : 34.8 MiB (5%)
Encoded date : UTC 2008-05-27 00:11:20
Tagged date : UTC 2008-05-26 00:11:55
Скриншоты
Не забываем говорить спасибо - вам не сложно, а мне приятно!
 
   
Торрент:
Зарегистрирован [05 сен 2015, 02:19]
Скачать торрент Магнет ссылка
Скачать торрент
[ Размер 10.82 КБ / Просмотров 0 ]
Статус:
Проверен
 
.torrent скачан: 0 раз
Хэш: 794a9e761aaef0524d0ad49f294ed7c156556af1
Размер: 2.04 ГБ (2 191 625 769 байт)
 

Вернуться в Гонзо-фильмы / Gonzo

Кто сейчас на конференции

Сейчас эту тему просматривают: нет зарегистрированных пользователей и гости: 1


Ресурс не предоставляет электронные версии произведений, а занимается лишь коллекционированием и каталогизацией ссылок, присылаемых и публикуемых на форуме нашими читателями. Если вы являетесь правообладателем какого-либо представленного материала и не желаете чтобы ссылка на него находилась в нашем каталоге, свяжитесь с нами и мы незамедлительно удалим её. Файлы для обмена на трекере предоставлены пользователями сайта, и администрация не несёт ответственности за их содержание. Просьба не заливать файлы, защищенные авторскими правами, а также файлы нелегального содержания!
cron