DD Doctors / Доктора, с размерчиком DD (Ivan, Tom Byron Pictures) [2010 г., Gonzo, Big Tits, All Sex, Oral, Tittyfuck, Nurses & Doctors, HDRip, 480 p] [Split Scenes + BTS] Angelina Valentine, Bridgette B, Shyla Stylez etc

 Статистика раздачи 
Размер: 3.2 ГБ   |  Зарегистрирован: 05 сен 2015, 02:18   |   .torrent скачан: 0 раз
Сидеров: 3  [ 0 байт/сек ]     Личеров: 0  [ 0 байт/сек ]  
  
В сети
Аватара пользователя
Раздал: 130.41 ГБ
Скачал: 45.05 ГБ
Ратио: 2.895
Сообщения: 349589
Зарегистрирован: 27 июл 2015, 20:38

DD Doctors / Доктора, с размерчиком DD (Ivan, Tom Byron Pictures) [2010 г., Gonzo, Big Tits, All Sex, Oral, Tittyfuck, Nurses & Doctors, HDRip, 480 p] [Split Scenes + BTS] Angelina Valentine, Bridgette B, Shyla Stylez etc

Сообщение MalonE » 11 мар 2013, 13:17

DD Doctors
- Доктора, с размерчиком DD - #77Год производства: 2010 г.
Страна: USA
Жанр: Gonzo, Big Tits, All Sex, Oral, Tittyfuck, Nurses & Doctors
Язык: Английский
Режиссер:
Ivan
Студия:
Tom Byron Pictures
Продолжительность: 02:07:41
Release Date: Aug 12, 2010
В ролях:
Actresses-
Angelina Valentine [Squirt]
Bridgette B
Daphne Rosen
Kayla Paige [Facial]
Shyla Stylez
Actors- Criss Strokes, Justice Young, Sascha, Tom Byron
[b]Porn Stars[/b]
Angelina Valentine, Bridgette B.

Daphne Rosen, Kayla Paige

Shyla Styles
Scene Breakdowns
Scene 1. Daphne Rosen, Justice Young
Scene 2. Kayla Paige, Sascha
Scene 3. Angelina Valentine, Criss Strokes
Scene 4. Bridgette B, Tom Byron
Scene 5. Shyla Stylez, Justice Young
And
Scene 6. Behind the Scenes

Описание:
These big tittied gals go to the doctor for a checkup and get those gigantic boobs examined close-up. Their large hooters are things of beauty that ought to be looked at real close.Доп. информация:
http://www.iafd.com/title.rme/title=DD+Doctors/year...0/dd-doctors.htm
Качество видео: HDRip
Формат видео: AVI
Видео кодек: XviD
Аудио кодек: MP3
Видео: 3000 Kbps, 25.0 fps, 864*480 (16:9), xvid = XVID Mpeg-4
Аудио: 112 Kbps, 44100 Hz, 2 ch, 0x55 = MPEG Layer-3, VBR
[b]MediaInfo[/b]
Общее
Полное имя : DD Doctors HDRip 480 p\dd.doctors.scene.1.avi
Формат : AVI
Формат/Информация : Audio Video Interleave
Размер файла : 707 Мбайт
Продолжительность : 31 м.
Общий поток : 3125 Кбит/сек
Видео
Идентификатор : 0
Формат : MPEG-4 Visual
Профиль формата : Advanced [email protected]
Параметр BVOP формата : Нет
Параметр QPel формата : Нет
Параметр GMC формата : Без точки перехода
Параметр матрицы формата : Default (H.263)
Идентификатор кодека : XVID
Идентификатор кодека/Подсказка : XviD
Продолжительность : 31 м.
Битрейт : 3000 Кбит/сек
Ширина : 864 пикс.
Высота : 480 пикс.
Соотношение сторон : 16:9
Частота кадров : 25,000 кадр/сек
Цветовое пространство : YUV
Подвыборка цветности : 4:2:0
Битовая глубина : 8 бит
Тип развёртки : Прогрессивная
Метод сжатия : С потерями
Бит/(Пиксели*Кадры) : 0.289
Размер потока : 679 Мбайт (96%)
Аудио
Идентификатор : 1
Формат : MPEG Audio
Версия формата : Version 1
Профиль формата : Layer 3
Идентификатор кодека : 55
Идентификатор кодека/Подсказка : MP3
Продолжительность : 31 м.
Вид битрейта : Постоянный
Битрейт : 112 Кбит/сек
Каналы : 2 канала
Частота : 44,1 КГц
Метод сжатия : С потерями
Размер потока : 25,3 Мбайт (4%)
Выравнивание : Разделение по промежуткам
Продолжительность промежутка : 26 мс. (0,65 видеокадр)
************************************
ПРИЯТНОГО ПРОСМОТРА ! НЕ ЗАБЫВАЙТЕ О "СПАСИБО" !
[b]Скриншоты[/b]
[b]Скринлисты[/b]
[b]Scene 1. Daphne Rosen, Justice Young[/b]
[b]Scene 2. Kayla Paige, Sascha[/b]
[b]Scene 3. Angelina Valentine, Criss Strokes[/b]
[b]Scene 4. Bridgette B, Tom Byron[/b]
[b]Scene 5. Shyla Stylez, Justice Young[/b]
[b]Scene 6. Behind the Scenes[/b]
[b]Альтернатива[/b]



DD Doctors HD - 720 (Автор - Henry Chinaski)
 
   
Торрент:
Зарегистрирован [05 сен 2015, 02:18]
Скачать торрент Магнет ссылка
Скачать торрент
[ Размер 16.76 КБ / Просмотров 1 ]
Статус:
Проверен
 
.torrent скачан: 0 раз
Хэш: 609bcce2ec66ba39bfdd1b23c3259d3165ce9e45
Размер: 3.2 ГБ (3 437 765 278 байт)
 

Вернуться в Гонзо-фильмы / Gonzo

Кто сейчас на конференции

Сейчас эту тему просматривают: нет зарегистрированных пользователей и гости: 1


Ресурс не предоставляет электронные версии произведений, а занимается лишь коллекционированием и каталогизацией ссылок, присылаемых и публикуемых на форуме нашими читателями. Если вы являетесь правообладателем какого-либо представленного материала и не желаете чтобы ссылка на него находилась в нашем каталоге, свяжитесь с нами и мы незамедлительно удалим её. Файлы для обмена на трекере предоставлены пользователями сайта, и администрация не несёт ответственности за их содержание. Просьба не заливать файлы, защищенные авторскими правами, а также файлы нелегального содержания!
cron