Big Boobs In Buttsville / Большие Сиськи В Жопвилле (разбит на эпизоды) (Seymore Butts) [2004 г., Anal, Big Tits, Gonzo, DVDRip]

 Статистика раздачи 
Размер: 1.04 ГБ   |  Зарегистрирован: 05 сен 2015, 02:18   |   .torrent скачан: 0 раз
Сидеров: 3  [ 0 байт/сек ]     Личеров: 0  [ 0 байт/сек ]  
  
Аватара пользователя
Раздал: 130.41 ГБ
Скачал: 45.05 ГБ
Ратио: 2.895
Сообщения: 349589
Зарегистрирован: 27 июл 2015, 20:38

Big Boobs In Buttsville / Большие Сиськи В Жопвилле (разбит на эпизоды) (Seymore Butts) [2004 г., Anal, Big Tits, Gonzo, DVDRip]

Сообщение MalonE » 11 мар 2013, 13:43

Big Boobs In Buttsville / Большие Сиськи В Жопвилле (разбит на эпизоды) -Год производства: 2004 г.
Страна: США
Жанр: Anal, Big Tits, Gonzo
Продолжительность: 2ч 03мин
Язык: Английский
Режиссер: Seymore Butts
Студия: Seymore Butts
В ролях: Tatiana, Letha Weapons, Cortknee, Kim Kummings, Kelly Jean, Devon Deray
Описание: See Big Titties Get Sucked While Tight Asses Get Fucked!
http://www.cduniverse.com/productinfo.asp?pid=6747113&style=ice
Качество видео: DVDRip
Формат видео: MP4
Видео кодек: H.264/AVC
Аудио кодек: AAC
Видео: MPEG4 Video (H264) 640x480 29.97fps
Аудио: AAC 22050Hz stereo 705kbps
подробные тех.данные для одного из эпизодов
Format : MPEG-4
Format profile : Base Media / Version 2
Codec ID : mp42
File size : 284 MiB
Duration : 32mn 43s
Overall bit rate : 1 216 Kbps
Encoded date : UTC 2010-06-28 23:15:25
Tagged date : UTC 2010-06-29 01:34:33
Writing application : HandBrake rev3242 2010041999
Video
ID : 1
Format : AVC
Format/Info : Advanced Video Codec
Format profile : [email protected]
Format settings, CABAC : Yes
Format settings, ReFrames : 4 frames
Codec ID : avc1
Codec ID/Info : Advanced Video Coding
Duration : 32mn 42s
Bit rate mode : Variable
Bit rate : 1 136 Kbps
Width : 640 pixels
Height : 480 pixels
Display aspect ratio : 4:3
Frame rate mode : Constant
Frame rate : 29.970 fps
Color space : YUV
Chroma subsampling : 4:2:0
Bit depth : 8 bits
Scan type : Progressive
Bits/(Pixel*Frame) : 0.123
Stream size : 266 MiB (93%)
Writing library : x264 core 93
Encoding settings : cabac=1 / ref=3 / deblock=1:0:0 / analyse=0x3:0x133 / me=umh / subme=9 / psy=1 / psy_rd=1.00:1.00 / mixed_ref=1 / me_range=16 / chroma_me=1 / trellis=1 / 8x8dct=1 / cqm=0 / deadzone=21,11 / fast_pskip=0 / chroma_qp_offset=-4 / threads=1 / sliced_threads=0 / nr=150 / decimate=1 / interlaced=0 / constrained_intra=0 / bframes=6 / b_pyramid=2 / b_adapt=1 / b_bias=0 / direct=3 / wpredb=1 / wpredp=2 / keyint=30 / keyint_min=3 / scenecut=40 / intra_refresh=0 / rc_lookahead=30 / rc=2pass / mbtree=1 / bitrate=1136 / ratetol=1.0 / qcomp=0.60 / qpmin=10 / qpmax=51 / qpstep=4 / cplxblur=20.0 / qblur=0.5 / ip_ratio=1.40 / aq=1:1.00
Encoded date : UTC 2010-06-28 23:15:25
Tagged date : UTC 2010-06-29 01:34:33
Color primaries : BT.601-6 525, BT.1358 525, BT.1700 NTSC, SMPTE 170M
Transfer characteristics : BT.709-5, BT.1361
Matrix coefficients : BT.601-6 525, BT.1358 525, BT.1700 NTSC, SMPTE 170M
Audio
ID : 2
Format : AAC
Format/Info : Advanced Audio Codec
Format version : Version 4
Format profile : LC
Format settings, SBR : Yes
Format settings, PS : No
Codec ID : 40
Duration : 32mn 43s
Bit rate mode : Variable
Bit rate : 76.0 Kbps
Maximum bit rate : 94.4 Kbps
Channel(s) : 2 channels
Channel positions : Front: L R
Sampling rate : 44.1 KHz
Stream size : 17.8 MiB (6%)
Encoded date : UTC 2010-06-28 23:15:25
Tagged date : UTC 2010-06-29 01:34:33
Скриншоты
Не забываем говорить спасибо - вам не сложно, а мне приятно!
 
   
Торрент:
Зарегистрирован [05 сен 2015, 02:18]
Скачать торрент Магнет ссылка
Скачать торрент
[ Размер 11.08 КБ / Просмотров 0 ]
Статус:
Проверен
 
.torrent скачан: 0 раз
Хэш: 6403da5f50fba5e728a0bdf8d2bda537350ef6e8
Размер: 1.04 ГБ (1 120 698 120 байт)
 

Вернуться в Гонзо-фильмы / Gonzo

Кто сейчас на конференции

Сейчас эту тему просматривают: нет зарегистрированных пользователей и гости: 1


Ресурс не предоставляет электронные версии произведений, а занимается лишь коллекционированием и каталогизацией ссылок, присылаемых и публикуемых на форуме нашими читателями. Если вы являетесь правообладателем какого-либо представленного материала и не желаете чтобы ссылка на него находилась в нашем каталоге, свяжитесь с нами и мы незамедлительно удалим её. Файлы для обмена на трекере предоставлены пользователями сайта, и администрация не несёт ответственности за их содержание. Просьба не заливать файлы, защищенные авторскими правами, а также файлы нелегального содержания!
cron