Deep behind the scenes with Seymore Butts 2 / Между сценами с Сеймуром Баттсом 2 (Seymore Butts, Ultimate Video) [1996 г., Gonzo, DVDRip] Taylor Hayes , Monica Orsini , Maria de Sanchez , Selena , Elizabeth King , Ursula Moore , Tonya Hartlay

 Статистика раздачи 
Размер: 712.17 МБ   |  Зарегистрирован: 05 сен 2015, 02:16   |   .torrent скачан: 2 раз
Сидеров: 3  [ 0 байт/сек ]     Личеров: 0  [ 0 байт/сек ]  
  
В сети
Аватара пользователя
Раздал: 130.41 ГБ
Скачал: 45.05 ГБ
Ратио: 2.895
Сообщения: 349589
Зарегистрирован: 27 июл 2015, 20:38

Deep behind the scenes with Seymore Butts 2 / Между сценами с Сеймуром Баттсом 2 (Seymore Butts, Ultimate Video) [1996 г., Gonzo, DVDRip] Taylor Hayes , Monica Orsini , Maria de Sanchez , Selena , Elizabeth King , Ursula Moore , Tonya Hartlay

Сообщение MalonE » 11 мар 2013, 14:57

Deep behind the scenes with Seymore Butts 2 / Между сценами с Сеймуром Баттсом 2
#77Год производства: 1996 г.
Страна: США/Италия
Жанр: Gonzo
Продолжительность: 02:14:15
Язык: Английский
Режиссер: Seymore Butts
Студия: Ultimate Video
В ролях: Taylor Hayes, Monica Orsini, Maria de Sanchez, Selena, Elizabeth King , Ursula Moore, Tonya Hartlay, Nina Cherry, Steven St. Croix, John Walton, Mike Foster, Hakan, Seymore Butts, Kathy Kash, Eros Cristaldi
Описание: Deeper I Go... This time I'm off to Costa Brava, Spain to hang out on the set of a huge American/Italian megaproduction. It might have been cold and rainy outside, but under the camera lights it was much hotter and even wetter!
Доп. информация:
Разбивка сцен:
Scene 1. Kathy Kash, Taylor Hayes, Steven St. Croix
Scene 2. brun, guy
Scene 3. Monica Orsini, Taylor Hayes, John Walton, Steven St. Croix
Scene 4. Elizabeth King
Scene 5. Monica Orsini, Taylor Hayes, Steven St. Croix
Scene 6. Ursula Moore, Taylor Hayes, Steven St. Croix
Scene 7. Taylor Hayes, John Walton
Scene 8. Selena, Hakan
Scene 9. Nina Cherry, Eros Cristaldi, Mike Foster
Scene 10. Elizabeth King, Kathy Kash, Taylor Hayes, Steven St. Croix
Scene 11. Taylor Hayes
Scene 12. Monica Orsini, Steven St. Croix
Scene 13. Tonya Hartlay, Hakan
Фильм-репортаж о съёмке Trouble.
Дополнительное описание от KMP плеера
General
Format : AVI
Format/Info : Audio Video Interleave
File size : 712 MiB
Duration : 2h 14mn
Overall bit rate : 742 Kbps
Video
Format : MPEG-4 Visual
Format profile : Streaming [email protected]
Format settings, BVOP : Yes
Format settings, QPel : No
Format settings, GMC : No warppoints
Format settings, Matrix : Default (H.263)
Muxing mode : Packed bitstream
Codec ID : XVID
Codec ID/Hint : XviD
Duration : 2h 14mn
Bit rate : 634 Kbps
Width : 512 pixels
Height : 384 pixels
Display aspect ratio : 4/3
Frame rate : 29.970 fps
Resolution : 24 bits
Colorimetry : 4:2:0
Scan type : Progressive
Bits/(Pixel*Frame) : 0.108
Stream size : 609 MiB (85%)
Writing library : XviD 1.1.2 (UTC 2006-11-01)
Audio
Format : MPEG Audio
Format version : Version 1
Format profile : Layer 3
Codec ID : 55
Codec ID/Hint : MP3
Duration : 2h 14mn
Bit rate mode : Constant
Bit rate : 96.0 Kbps
Channel(s) : 2 channels
Sampling rate : 44.1 KHz
Resolution : 16 bits
Video delay : 26ms
Stream size : 92.2 MiB (13%)
Alignment : Split accross interleaves
Interleave, duration : 33 ms (1.00 video frame)
Title : Audio Stream
Качество видео: DVDRip
Формат видео: AVI
Видео кодек: XviD
Аудио кодек: MP3
Видео: Xvid 512x384 29.97fps
Аудио: MPEG Audio Layer 3 44100Hz stereo 96Kbps
Скриншоты и задний коврик

Здесь 1-ая часть
 
   
Торрент:
Зарегистрирован [05 сен 2015, 02:16]
Скачать торрент Магнет ссылка
Скачать торрент
[ Размер 14.33 КБ / Просмотров 2 ]
Статус:
Проверен
 
.torrent скачан: 2 раз
Хэш: 85278011b666ca9cba1906010ca9a3fda4ea3809
Размер: 712.17 МБ (746 768 896 байт)
 

Вернуться в Гонзо-фильмы / Gonzo

Кто сейчас на конференции

Сейчас эту тему просматривают: нет зарегистрированных пользователей и гости: 1


Ресурс не предоставляет электронные версии произведений, а занимается лишь коллекционированием и каталогизацией ссылок, присылаемых и публикуемых на форуме нашими читателями. Если вы являетесь правообладателем какого-либо представленного материала и не желаете чтобы ссылка на него находилась в нашем каталоге, свяжитесь с нами и мы незамедлительно удалим её. Файлы для обмена на трекере предоставлены пользователями сайта, и администрация не несёт ответственности за их содержание. Просьба не заливать файлы, защищенные авторскими правами, а также файлы нелегального содержания!
cron