Friends Don't Let Friends Fuck Alone / Друзья не дают друзьям трахаться водиночку (Joanna Angel, Burning Angel) [2007 г., All Sex, Straight, Threesomes, tattoo, DVDRip]

 Статистика раздачи 
Размер: 1.36 ГБ   |  Зарегистрирован: 05 сен 2015, 02:15   |   .torrent скачан: 1 раз
Сидеров: 1  [ 0 байт/сек ]     Личеров: 0  [ 0 байт/сек ]  
  
В сети
Аватара пользователя
Раздал: 130.41 ГБ
Скачал: 45.05 ГБ
Ратио: 2.895
Сообщения: 349589
Зарегистрирован: 27 июл 2015, 20:38

Friends Don't Let Friends Fuck Alone / Друзья не дают друзьям трахаться водиночку (Joanna Angel, Burning Angel) [2007 г., All Sex, Straight, Threesomes, tattoo, DVDRip]

Сообщение MalonE » 11 мар 2013, 16:26

Friends Don't Let Friends Fuck Alone /
Друзья не дают друзьям трахаться водиночку
Год производства: 2007 г.
Жанр: All Sex, Straight, Threesomes, tattoo
Продолжительность: 160 minutes
Язык: Английский
Режиссер: Joanna Angel
Студия: Burning Angel
В ролях: Joanna Angel, January Darling, Jessie Lee, Chapel Waste, Pixie Pearl, Mayhem, Margaret, James Deen, Jason Dallas, Tommy Pistol, Will Powers, Tony T
Описание: Friends are pretty awesome. They pick you up when you're down, they buy you birthday presents and they eat your pussy while you're getting fucked. The six amazing group sex scenes in this movie teach you the important meaning of friendship. Friends Don't Let Friends Fuck Alone.
Качество видео: DVDRip
Формат видео: AVI
Видео кодек: XviD
Аудио кодек: MP3
Видео: Xvid 512x384 29.97fps [Stream 00]
Аудио: MPEG Audio Layer 3 48000Hz stereo 103kbps [Stream 01]
тех. инфо
Format : AVI
Format/Info : Audio Video Interleave
File size : 696 MiB
Duration : 1h 8mn
Overall bit rate : 1 416 Kbps
Writing application : VirtualDubMod 1.5.10.2 (build 2540/release)
Writing library : VirtualDubMod build 2540/release
segm :
Video
ID : 0
Format : MPEG-4 Visual
Format profile : Advanced [email protected]
Format settings, BVOP : Yes
Format settings, QPel : No
Format settings, GMC : No warppoints
Format settings, Matrix : Default (H.263)
Codec ID : XVID
Codec ID/Hint : XviD
Duration : 1h 8mn
Bit rate : 1 298 Kbps
Width : 512 pixels
Height : 384 pixels
Display aspect ratio : 4:3
Frame rate : 29.970 fps
Color space : YUV
Chroma subsampling : 4:2:0
Bit depth : 8 bits
Scan type : Progressive
Bits/(Pixel*Frame) : 0.220
Stream size : 638 MiB (92%)
Writing library : XviD 1.2.1 (UTC 2008-12-04)
Audio
ID : 1
Format : MPEG Audio
Format version : Version 1
Format profile : Layer 3
Mode : Joint stereo
Mode extension : MS Stereo
Codec ID : 55
Codec ID/Hint : MP3
Duration : 1h 8mn
Bit rate mode : Variable
Bit rate : 104 Kbps
Channel(s) : 2 channels
Sampling rate : 48.0 KHz
Stream size : 51.3 MiB (7%)
Alignment : Aligned on interleaves
Interleave, duration : 24 ms (0.72 video frame)
Interleave, preload duration : 522 ms
Скриншоты

 
   
Торрент:
Зарегистрирован [05 сен 2015, 02:15]
Скачать торрент Магнет ссылка
Скачать торрент
[ Размер 14.19 КБ / Просмотров 1 ]
Статус:
Проверен
 
.torrent скачан: 1 раз
Хэш: d79e0fbddd305ca5ebe22679da4a9724f6e1fb8d
Размер: 1.36 ГБ (1 459 109 109 байт)
 

Вернуться в Гонзо-фильмы / Gonzo

Кто сейчас на конференции

Сейчас эту тему просматривают: нет зарегистрированных пользователей и гости: 1


Ресурс не предоставляет электронные версии произведений, а занимается лишь коллекционированием и каталогизацией ссылок, присылаемых и публикуемых на форуме нашими читателями. Если вы являетесь правообладателем какого-либо представленного материала и не желаете чтобы ссылка на него находилась в нашем каталоге, свяжитесь с нами и мы незамедлительно удалим её. Файлы для обмена на трекере предоставлены пользователями сайта, и администрация не несёт ответственности за их содержание. Просьба не заливать файлы, защищенные авторскими правами, а также файлы нелегального содержания!
cron