Big Natural Tits 14 / большие натуральные сиськи 14 (Christoph Clark, Evil Angel) [2005 г., Gonzo, Anal, Big Tits., DVDRip]

 Статистика раздачи 
Размер: 2.18 ГБ   |  Зарегистрирован: 05 сен 2015, 02:13   |   .torrent скачан: 0 раз
Сидеров: 3  [ 0 байт/сек ]     Личеров: 0  [ 0 байт/сек ]  
  
Аватара пользователя
Раздал: 130.41 ГБ
Скачал: 45.05 ГБ
Ратио: 2.895
Сообщения: 349589
Зарегистрирован: 27 июл 2015, 20:38

Big Natural Tits 14 / большие натуральные сиськи 14 (Christoph Clark, Evil Angel) [2005 г., Gonzo, Anal, Big Tits., DVDRip]

Сообщение MalonE » 11 мар 2013, 17:31

Big Natural Tits #14 / большие натуральные сиськи 14 Год производства:2005 г.
Страна: USA
Жанр: Gonzo, Anal, Big Tits.
Продолжительность: 02:17:41
Язык: Английский
Режиссер: Christoph Clark
Студия: Evil Angel
В ролях: Talon, Brandy Talore, Greg Centauro, Lolita, Diether Von Stein, Lydia St. Martin, Nataly Brown, Katalina, Mr Pete, Steve Holmes, Nick Lang, Zenza Raggi

Описание: Данный фильм посвящен всеми желанным девушкам с огромной грудью, и, что особо заслуживает уважения, все это богатство абсолютно натуральное, без грамма силикона, коим девчонки балуются и закачивают данную субстанцию куда только можно и в неимоверных количествах. Между этих соблазнительных баллонов всегда можно пристроить своего дружка и помусолить его до семяизвержения, или славно отыметь красавицу, крепко сжимая ее титки в своих руках.

Качество видео: DVDRip
Формат видео: AVI
Видео кодек: XviD
Аудио кодек: MP3
Видео: Xvid 704x576 25.00fps 2 326 Kbps
Аудио: MPEG Audio Layer 3 44100Hz stereo 128kbps
MediaInfo
Format : AVI
Format/Info : Audio Video Interleave
Format profile : OpenDML
File size : 2.18 GiB
Duration : 2h 6mn
Overall bit rate : 2 459 Kbps
Video
ID : 0
Format : MPEG-4 Visual
Format profile : [email protected]
Format settings, BVOP : No
Format settings, QPel : No
Format settings, GMC : No warppoints
Format settings, Matrix : Default (H.263)
Codec ID : XVID
Codec ID/Hint : XviD
Duration : 2h 6mn
Bit rate : 2 326 Kbps
Width : 704 pixels
Height : 576 pixels
Display aspect ratio : 1.222
Frame rate : 25.000 fps
Standard : PAL
Color space : YUV
Chroma subsampling : 4:2:0
Bit depth : 8 bits
Scan type : Progressive
Bits/(Pixel*Frame) : 0.229
Stream size : 2.06 GiB (95%)
Writing library : ZJMedia MPEG Encoder
Audio
ID : 1
Format : MPEG Audio
Format version : Version 1
Format profile : Layer 3
Mode : Joint stereo
Mode extension : MS Stereo
Codec ID : 55
Codec ID/Hint : MP3
Duration : 2h 6mn
Bit rate mode : Constant
Bit rate : 128 Kbps
Channel(s) : 2 channels
Sampling rate : 44.1 KHz
Stream size : 116 MiB (5%)
Alignment : Split accross interleaves
Interleave, duration : 1000 ms (25.00 video frames)
Скриншоты
 
   
Торрент:
Зарегистрирован [05 сен 2015, 02:13]
Скачать торрент Магнет ссылка
Скачать торрент
[ Размер 11.54 КБ / Просмотров 3 ]
Статус:
Проверен
 
.torrent скачан: 0 раз
Хэш: 36fc88b316e52b331a6f1f50ff78171e5ac95e2b
Размер: 2.18 ГБ (2 338 430 120 байт)
 

Вернуться в Гонзо-фильмы / Gonzo

Кто сейчас на конференции

Сейчас эту тему просматривают: нет зарегистрированных пользователей и гости: 1


Ресурс не предоставляет электронные версии произведений, а занимается лишь коллекционированием и каталогизацией ссылок, присылаемых и публикуемых на форуме нашими читателями. Если вы являетесь правообладателем какого-либо представленного материала и не желаете чтобы ссылка на него находилась в нашем каталоге, свяжитесь с нами и мы незамедлительно удалим её. Файлы для обмена на трекере предоставлены пользователями сайта, и администрация не несёт ответственности за их содержание. Просьба не заливать файлы, защищенные авторскими правами, а также файлы нелегального содержания!
cron