Sasha Grey Expose / Выставленная на показ Sasha Grey (Jake Malone, Evil Angel) [2010 г., Compilation, Gonzo, Anal, DVDRip] [Split Scenes + Bonus] (Sandra Romain, Jennifer Dark, Annie Cruz, Bobbi Starr, Sinn Sage)

 Статистика раздачи 
Размер: 3.45 ГБ   |  Зарегистрирован: 05 сен 2015, 02:12   |   .torrent скачан: 0 раз
Сидеров: 3  [ 0 байт/сек ]     Личеров: 0  [ 0 байт/сек ]  
  
Аватара пользователя
Раздал: 130.41 ГБ
Скачал: 45.05 ГБ
Ратио: 2.895
Сообщения: 349589
Зарегистрирован: 27 июл 2015, 20:38

Sasha Grey Expose / Выставленная на показ Sasha Grey (Jake Malone, Evil Angel) [2010 г., Compilation, Gonzo, Anal, DVDRip] [Split Scenes + Bonus] (Sandra Romain, Jennifer Dark, Annie Cruz, Bobbi Starr, Sinn Sage)

Сообщение MalonE » 11 мар 2013, 17:51

Sasha Grey Expose
- Выставленная на показ Sasha Grey -
(фильм разделён на сцены)Год производства: 2010 г.
Страна: USA
Жанр: Compilation, Gonzo, Anal, Deep Throat, Cumswapping, Fetish, Open Mouth, Facial, Tattoo/Piercing, Dark Hair
Язык: Английский
Режиссер: Jake Malone
Студия: Evil Angel
Продолжительность: 02:32:54 (фильм) + 00:15:40 (бонусы)
Release Date: 01/14/2011
В ролях:
Actresses- Annie Cruz [IR], Bobbi Starr [LezOnly], Jennifer Dark [IR], Sandra Romain [Anal], Sasha Grey [Anal IR], Sinn Sage [LezOnly]
Actors- Brandon Iron, D. Snoop, Lee Bang, Lefty Larue, Manuel Ferrara, Tone Capone
[b]Scene Breakdowns[/b]
Scene 1. Annie Cruz, Sasha Grey, Brandon Iron, D. Snoop, Lee Bang, Lefty Larue, Tone Capone
Scene 2. Sandra Romain, Sasha Grey, Sinn Sage
Scene 3. Jennifer Dark, Sasha Grey, Lee Bang
Scene 4. Sasha Grey, Bobbi Starr
Scene 5. Manuel Ferrara, Sandra Romain, Sasha Grey
And
Bonus:
Cumshot Recap;
Behind the Scenes
Описание:
Alluring, enigmatic Sasha Grey, star of both mainstream film and the filthiest porn, has created quite a few sex scenes with veteran pervert Jake Malone. Sasha Grey Exposé collects some of the finest hard-core performances of this pale, brunette beauty, with an emphasis on the rougher side of Sasha's oeuvre. The first piece is a throat-fucking marathon from Jake's Gang Bang My Face, in which Sasha portrays a policewoman with a taste for oral degradation at the hands (and penises) of five criminal cocksmen. Their facial abuse is momentarily halted by a latex-masked Annie Cruz, who squats over Sasha's mouth and masturbates to a squirting climax! In a segment from Bitchcraft 2, Sasha and cool Euro-bitch Sandra Romain are a couple of dominant lovers who team up on poor, pretty Sinn Sage, with spitting, flogging, slapping and lots of oral and anal kink. Only after thoroughly breaking the young sweetheart do these mean lesbians allow Sinn a final, squirting orgasm. Next, skinny European brunette Jennifer Dark joins Sasha in a POV double blow job on a big black cock ... this scene is from Mr. Malone's aptly titled We Suck. After the man shoots his load in Sasha's mouth, the ladies enjoy a kissy cum swap. Tall, gorgeous Bobbi Starr is the perfect target for Sasha's fierce libido in a scene from Bitchcraft 4 that's marked by anal rimming, nipple torment, vibrating and electrified toys, toe-fucking (!) and light bondage. And the final scene won Best 3-Way Sex Scene at the AVN Awards: it's a submission fantasy from the movie Fuck Slaves among dominant Sandra Romain, brutal Manuel Ferrara and Ms. Grey in submissive guise. Their epic threesome includes nasty ass-to-mouth anal probing; Sasha getting her tonsils showered by a messy milk enema; heavy face slapping and nipple clamps. All you fans of the iconic Sasha - as well as fanciers of Jake Malone-style perversion - do not pass up this volcanic kink!ТрейлерыКачество видео: DVDRip
Формат видео: AVI
Видео кодек: XVID
Аудио кодек: MP3
Видео: 2765 Kbps, 25.0 fps, 640*480 (4:3), XVID = XVID Mpeg-4
Аудио: 160 Kbps, 44100 Hz, 2 ch, 0x55 = MPEG Layer-3, VBR
[b]MediaInfo[/b]
Общее
Полное имя Sasha Grey Expose_AVI_Split Scenes\Sasha Grey Expose_Sc.00_Title.avi
Формат : AVI
Формат/Информация : Audio Video Interleave
Размер файла : 44,7 Мбайт
Продолжительность : 2 м. 13 с.
Общий поток : 2822 Кбит/сек
Видео
Идентификатор : 0
Формат : MPEG-4 Visual
Идентификатор кодека : XVID
Идентификатор кодека/Подсказка : XviD
Продолжительность : 2 м. 13 с.
Битрейт : 2640 Кбит/сек
Ширина : 640 пикс.
Высота : 480 пикс.
Соотношение сторон : 4:3
Частота кадров : 25,000 кадр/сек
Цветовое пространство : YUV
Подвыборка цветности : 4:2:0
Метод сжатия : С потерями
Бит/(Пиксели*Кадры) : 0.344
Размер потока : 41,9 Мбайт (94%)
Аудио
Идентификатор : 1
Формат : MPEG Audio
Идентификатор кодека : 55
Идентификатор кодека/Подсказка : MP3
Продолжительность : 2 м. 13 с.
Битрейт : 160 Кбит/сек
Каналы : 2 канала
Частота : 44,1 КГц
Метод сжатия : С потерями
Размер потока : 2,54 Мбайт (6%)
Выравнивание : Соединение по промежуткам
Продолжительность промежутка : 26 мс. (0,65 видеокадр)
Общее
Полное имя : Sasha Grey Expose_AVI_Split Scenes\Sasha Grey Expose_Sc.01_Annie Cruz, Sasha Grey.avi
Формат : AVI
Формат/Информация : Audio Video Interleave
Размер файла : 733 Мбайт
Продолжительность : 35 м.
Общий поток : 2924 Кбит/сек
Видео
Идентификатор : 0
Формат : MPEG-4 Visual
Идентификатор кодека : XVID
Идентификатор кодека/Подсказка : XviD
Продолжительность : 35 м.
Битрейт : 2747 Кбит/сек
Ширина : 640 пикс.
Высота : 480 пикс.
Соотношение сторон : 4:3
Частота кадров : 25,000 кадр/сек
Цветовое пространство : YUV
Подвыборка цветности : 4:2:0
Метод сжатия : С потерями
Бит/(Пиксели*Кадры) : 0.358
Размер потока : 689 Мбайт (94%)
Аудио
Идентификатор : 1
Формат : MPEG Audio
Идентификатор кодека : 55
Идентификатор кодека/Подсказка : MP3
Продолжительность : 35 м.
Битрейт : 160 Кбит/сек
Каналы : 2 канала
Частота : 44,1 КГц
Метод сжатия : С потерями
Размер потока : 40,1 Мбайт (5%)
Выравнивание : Соединение по промежуткам
Продолжительность промежутка : 26 мс. (0,65 видеокадр)
Общее
Полное имя : Sasha Grey Expose_AVI_Split Scenes\Sasha Grey Expose_Sc.02_Sandra Romain, Sasha Grey.avi
Формат : AVI
Формат/Информация : Audio Video Interleave
Размер файла : 624 Мбайт
Продолжительность : 29 м.
Общий поток : 2926 Кбит/сек
Видео
Идентификатор : 0
Формат : MPEG-4 Visual
Профиль формата : Advanced [email protected]
Параметр BVOP формата : Нет
Параметр QPel формата : Нет
Параметр GMC формата : Без точки перехода
Параметр матрицы формата : Default (H.263)
Идентификатор кодека : XVID
Идентификатор кодека/Подсказка : XviD
Продолжительность : 29 м.
Битрейт : 2749 Кбит/сек
Ширина : 640 пикс.
Высота : 480 пикс.
Соотношение сторон : 4:3
Частота кадров : 25,000 кадр/сек
Цветовое пространство : YUV
Подвыборка цветности : 4:2:0
Битовая глубина : 8 бит
Тип развёртки : Прогрессивная
Метод сжатия : С потерями
Бит/(Пиксели*Кадры) : 0.358
Размер потока : 586 Мбайт (94%)
Аудио
Идентификатор : 1
Формат : MPEG Audio
Версия формата : Version 1
Профиль формата : Layer 3
Идентификатор кодека : 55
Идентификатор кодека/Подсказка : MP3
Продолжительность : 29 м.
Вид битрейта : Постоянный
Битрейт : 160 Кбит/сек
Каналы : 2 канала
Частота : 44,1 КГц
Метод сжатия : С потерями
Размер потока : 34,1 Мбайт (5%)
Выравнивание : Соединение по промежуткам
Продолжительность промежутка : 26 мс. (0,65 видеокадр)
Общее
Полное имя : Sasha Grey Expose_AVI_Split Scenes\Sasha Grey Expose_Sc.03_Jennifer Dark, Sasha Grey.avi
Формат : AVI
Формат/Информация : Audio Video Interleave
Размер файла : 252 Мбайт
Продолжительность : 12 м.
Общий поток : 2929 Кбит/сек
Видео
Идентификатор : 0
Формат : MPEG-4 Visual
Идентификатор кодека : XVID
Идентификатор кодека/Подсказка : XviD
Продолжительность : 12 м.
Битрейт : 2752 Кбит/сек
Ширина : 640 пикс.
Высота : 480 пикс.
Соотношение сторон : 4:3
Частота кадров : 25,000 кадр/сек
Цветовое пространство : YUV
Подвыборка цветности : 4:2:0
Метод сжатия : С потерями
Бит/(Пиксели*Кадры) : 0.358
Размер потока : 237 Мбайт (94%)
Аудио
Идентификатор : 1
Формат : MPEG Audio
Идентификатор кодека : 55
Идентификатор кодека/Подсказка : MP3
Продолжительность : 12 м.
Битрейт : 160 Кбит/сек
Каналы : 2 канала
Частота : 44,1 КГц
Метод сжатия : С потерями
Размер потока : 13,8 Мбайт (5%)
Выравнивание : Соединение по промежуткам
Продолжительность промежутка : 26 мс. (0,65 видеокадр)
Общее
Полное имя : Sasha Grey Expose_AVI_Split Scenes\Sasha Grey Expose_Sc.04_Bobbi Starr, Sasha Grey.avi
Формат : AVI
Формат/Информация : Audio Video Interleave
Размер файла : 820 Мбайт
Продолжительность : 39 м.
Общий поток : 2926 Кбит/сек
Видео
Идентификатор : 0
Формат : MPEG-4 Visual
Идентификатор кодека : XVID
Идентификатор кодека/Подсказка : XviD
Продолжительность : 39 м.
Битрейт : 2749 Кбит/сек
Ширина : 640 пикс.
Высота : 480 пикс.
Соотношение сторон : 4:3
Частота кадров : 25,000 кадр/сек
Цветовое пространство : YUV
Подвыборка цветности : 4:2:0
Метод сжатия : С потерями
Бит/(Пиксели*Кадры) : 0.358
Размер потока : 771 Мбайт (94%)
Аудио
Идентификатор : 1
Формат : MPEG Audio
Идентификатор кодека : 55
Идентификатор кодека/Подсказка : MP3
Продолжительность : 39 м.
Битрейт : 160 Кбит/сек
Каналы : 2 канала
Частота : 44,1 КГц
Метод сжатия : С потерями
Размер потока : 44,9 Мбайт (5%)
Выравнивание : Соединение по промежуткам
Продолжительность промежутка : 26 мс. (0,65 видеокадр)
Общее
Полное имя : Sasha Grey Expose_AVI_Split Scenes\Sasha Grey Expose_Sc.05_Sandra Romain, Sasha Grey.avi
Формат : AVI
Формат/Информация : Audio Video Interleave
Размер файла : 717 Мбайт
Продолжительность : 34 м.
Общий поток : 2928 Кбит/сек
Видео
Идентификатор : 0
Формат : MPEG-4 Visual
Идентификатор кодека : XVID
Идентификатор кодека/Подсказка : XviD
Продолжительность : 34 м.
Битрейт : 2752 Кбит/сек
Ширина : 640 пикс.
Высота : 480 пикс.
Соотношение сторон : 4:3
Частота кадров : 25,000 кадр/сек
Цветовое пространство : YUV
Подвыборка цветности : 4:2:0
Метод сжатия : С потерями
Бит/(Пиксели*Кадры) : 0.358
Размер потока : 673 Мбайт (94%)
Аудио
Идентификатор : 1
Формат : MPEG Audio
Идентификатор кодека : 55
Идентификатор кодека/Подсказка : MP3
Продолжительность : 34 м.
Битрейт : 160 Кбит/сек
Каналы : 2 канала
Частота : 44,1 КГц
Метод сжатия : С потерями
Размер потока : 39,2 Мбайт (5%)
Выравнивание : Соединение по промежуткам
Продолжительность промежутка : 26 мс. (0,65 видеокадр)
Общее
Полное имя : Sasha Grey Expose_AVI_Split Scenes\Sasha Grey Expose_Sc.06.00_Title.avi
Формат : AVI
Формат/Информация : Audio Video Interleave
Размер файла : 15,5 Мбайт
Продолжительность : 42 с.
Общий поток : 3093 Кбит/сек
Видео
Идентификатор : 0
Формат : MPEG-4 Visual
Профиль формата : Advanced [email protected]
Параметр BVOP формата : Нет
Параметр QPel формата : Нет
Параметр GMC формата : Без точки перехода
Параметр матрицы формата : Default (H.263)
Идентификатор кодека : XVID
Идентификатор кодека/Подсказка : XviD
Продолжительность : 42 с.
Битрейт : 2897 Кбит/сек
Ширина : 640 пикс.
Высота : 480 пикс.
Соотношение сторон : 4:3
Частота кадров : 25,000 кадр/сек
Цветовое пространство : YUV
Подвыборка цветности : 4:2:0
Битовая глубина : 8 бит
Тип развёртки : Прогрессивная
Метод сжатия : С потерями
Бит/(Пиксели*Кадры) : 0.377
Размер потока : 14,5 Мбайт (94%)
Аудио
Идентификатор : 1
Формат : MPEG Audio
Версия формата : Version 1
Профиль формата : Layer 3
Идентификатор кодека : 55
Идентификатор кодека/Подсказка : MP3
Продолжительность : 41 с.
Вид битрейта : Постоянный
Битрейт : 160 Кбит/сек
Каналы : 2 канала
Частота : 44,1 КГц
Метод сжатия : С потерями
Задержка видео : 2 мс.
Размер потока : 818 Кбайт (5%)
Выравнивание : Соединение по промежуткам
Продолжительность промежутка : 26 мс. (0,66 видеокадр)
Общее
Полное имя : Sasha Grey Expose_AVI_Split Scenes\Sasha Grey Expose_Sc.07_Cumshot Recap.avi
Формат : AVI
Формат/Информация : Audio Video Interleave
Размер файла : 157 Мбайт
Продолжительность : 7 м. 31 с.
Общий поток : 2919 Кбит/сек
Видео
Идентификатор : 0
Формат : MPEG-4 Visual
Профиль формата : Advanced [email protected]
Параметр BVOP формата : Нет
Параметр QPel формата : Нет
Параметр GMC формата : Без точки перехода
Параметр матрицы формата : Default (H.263)
Идентификатор кодека : XVID
Идентификатор кодека/Подсказка : XviD
Продолжительность : 7 м. 31 с.
Битрейт : 2746 Кбит/сек
Ширина : 640 пикс.
Высота : 480 пикс.
Соотношение сторон : 4:3
Частота кадров : 25,000 кадр/сек
Цветовое пространство : YUV
Подвыборка цветности : 4:2:0
Битовая глубина : 8 бит
Тип развёртки : Прогрессивная
Метод сжатия : С потерями
Бит/(Пиксели*Кадры) : 0.358
Размер потока : 148 Мбайт (94%)
Аудио
Идентификатор : 1
Формат : MPEG Audio
Версия формата : Version 1
Профиль формата : Layer 3
Идентификатор кодека : 55
Идентификатор кодека/Подсказка : MP3
Продолжительность : 7 м. 31 с.
Вид битрейта : Постоянный
Битрейт : 160 Кбит/сек
Каналы : 2 канала
Частота : 44,1 КГц
Метод сжатия : С потерями
Размер потока : 8,61 Мбайт (5%)
Выравнивание : Разделение по промежуткам
Продолжительность промежутка : 26 мс. (0,65 видеокадр)
Общее
Полное имя : Sasha Grey Expose_AVI_Split Scenes\Sasha Grey Expose_Sc.08_Benind The Scenes.avi
Формат : AVI
Формат/Информация : Audio Video Interleave
Размер файла : 168 Мбайт
Продолжительность : 8 м. 9 с.
Общий поток : 2888 Кбит/сек
Видео
Идентификатор : 0
Формат : MPEG-4 Visual
Профиль формата : Advanced [email protected]
Параметр BVOP формата : Нет
Параметр QPel формата : Нет
Параметр GMC формата : Без точки перехода
Параметр матрицы формата : Default (H.263)
Идентификатор кодека : XVID
Идентификатор кодека/Подсказка : XviD
Продолжительность : 8 м. 9 с.
Битрейт : 2715 Кбит/сек
Ширина : 640 пикс.
Высота : 480 пикс.
Соотношение сторон : 4:3
Частота кадров : 25,000 кадр/сек
Цветовое пространство : YUV
Подвыборка цветности : 4:2:0
Битовая глубина : 8 бит
Тип развёртки : Прогрессивная
Метод сжатия : С потерями
Бит/(Пиксели*Кадры) : 0.354
Размер потока : 158 Мбайт (94%)
Аудио
Идентификатор : 1
Формат : MPEG Audio
Версия формата : Version 1
Профиль формата : Layer 3
Идентификатор кодека : 55
Идентификатор кодека/Подсказка : MP3
Продолжительность : 8 м. 9 с.
Вид битрейта : Постоянный
Битрейт : 160 Кбит/сек
Каналы : 2 канала
Частота : 44,1 КГц
Метод сжатия : С потерями
Размер потока : 9,33 Мбайт (6%)
Выравнивание : Разделение по промежуткам
Продолжительность промежутка : 26 мс. (0,65 видеокадр)
Библиотека кодирования : LAME3.98.2
************************************
ПРИЯТНОГО ПРОСМОТРА ! НЕ ЗАБЫВАЙТЕ О "СПАСИБО" !
[b]Скриншоты[/b]
[b]Альтернатива[/b]

Sasha Grey Expose DVD9 (Автор - Bizarre-TNC)
Sasha Grey Expose DVD5 (Автор - lvovich133)
 
   
Торрент:
Зарегистрирован [05 сен 2015, 02:12]
Скачать торрент Магнет ссылка
Скачать торрент
[ Размер 18.81 КБ / Просмотров 2 ]
Статус:
Проверен
 
.torrent скачан: 0 раз
Хэш: aa7f01f435a1889a1274584c24617cbaf65eeb02
Размер: 3.45 ГБ (3 708 957 444 байт)
 

Вернуться в Гонзо-фильмы / Gonzo

Кто сейчас на конференции

Сейчас эту тему просматривают: нет зарегистрированных пользователей и гости: 1


Ресурс не предоставляет электронные версии произведений, а занимается лишь коллекционированием и каталогизацией ссылок, присылаемых и публикуемых на форуме нашими читателями. Если вы являетесь правообладателем какого-либо представленного материала и не желаете чтобы ссылка на него находилась в нашем каталоге, свяжитесь с нами и мы незамедлительно удалим её. Файлы для обмена на трекере предоставлены пользователями сайта, и администрация не несёт ответственности за их содержание. Просьба не заливать файлы, защищенные авторскими правами, а также файлы нелегального содержания!
cron