Hit Me With Your Best Squirt 2 [2010 г., All Sex, Gonzo, Squirt]

 Статистика раздачи 
Размер: 1.43 ГБ   |  Зарегистрирован: 05 сен 2015, 02:12   |   .torrent скачан: 0 раз
Сидеров: 3  [ 0 байт/сек ]     Личеров: 0  [ 0 байт/сек ]  
  
Аватара пользователя
Раздал: 130.41 ГБ
Скачал: 45.05 ГБ
Ратио: 2.895
Сообщения: 349589
Зарегистрирован: 27 июл 2015, 20:38

Hit Me With Your Best Squirt 2 [2010 г., All Sex, Gonzo, Squirt]

Сообщение MalonE » 11 мар 2013, 18:13

-
Hit Me With Your Best Squirt 2

-#77
Год производства: 2010 г.
Страна: USA
Жанр: All Sex, Gonzo, Squirt
Продолжительность: 02:02:32
Язык: Английский
Студия: Tom Byron Pictures
В ролях: Charley Chase, Chastity Lynn, Hunter Bryce, Kayme Kai, Lexi Love, McKenzee Miles
Описание: We have assembled some of our most fantastic squirters for this DVD. Better wear your raincoat... You WILL get wet!
Качество видео: VOD
Формат видео: WMV
Видео кодек: Windows Media
Аудио кодек: WMA
Видео: WVC1 720x480 29.97fps 1600kbps
Аудио: Windows Media Audio 48000Hz stereo 64kbps
Скриншоты
MediaInfo
General
Format : Windows Media
File size : 1.43 GiB
Duration : 2h 2mn
Overall bit rate mode : Constant
Overall bit rate : 1 671 Kbps
Maximum Overall bit rate : 1 681 Kbps
Movie name : Hit Me With Your Best Squirt 2
Performer : Adult DVD Empire
Encoded date : UTC 2009-08-03 17:21:14.139
Copyright : Copyright (c) Tom Byron Pictures
Comment : (null)
Video
ID : 2
Format : VC-1
Format profile : [email protected]
Codec ID : WVC1
Codec ID/Hint : Microsoft
Description of the codec : Windows Media Video 9 Advanced Profile
Duration : 2h 2mn
Bit rate mode : Constant
Bit rate : 1 600 Kbps
Width : 720 pixels
Height : 480 pixels
Display aspect ratio : 3:2
Frame rate : 29.970 fps
Standard : NTSC
Chroma subsampling : 4:2:0
Bit depth : 8 bits
Scan type : Progressive
Compression mode : Lossy
Bits/(Pixel*Frame) : 0.154
Stream size : 1.37 GiB (96%)
Language : English (US)
Audio
ID : 1
Format : WMA
Format version : Version 2
Codec ID : 161
Codec ID/Info : Windows Media Audio
Description of the codec : Windows Media Audio 9.2 - 64 kbps, 48 kHz, stereo (A/V) 1-pass CBR
Duration : 2h 2mn
Bit rate mode : Constant
Bit rate : 64.0 Kbps
Channel(s) : 2 channels
Sampling rate : 48.0 KHz
Bit depth : 16 bits
Stream size : 56.1 MiB (4%)
Language : English (US)
 
   
Торрент:
Зарегистрирован [05 сен 2015, 02:12]
Скачать торрент Магнет ссылка
Скачать торрент
[ Размер 14.71 КБ / Просмотров 0 ]
Статус:
Проверен
 
.torrent скачан: 0 раз
Хэш: 12e1c7cb762b0470196a6480beeb79edb1905c8f
Размер: 1.43 ГБ (1 536 206 106 байт)
 

Вернуться в Гонзо-фильмы / Gonzo

Кто сейчас на конференции

Сейчас эту тему просматривают: нет зарегистрированных пользователей и гости: 1


Ресурс не предоставляет электронные версии произведений, а занимается лишь коллекционированием и каталогизацией ссылок, присылаемых и публикуемых на форуме нашими читателями. Если вы являетесь правообладателем какого-либо представленного материала и не желаете чтобы ссылка на него находилась в нашем каталоге, свяжитесь с нами и мы незамедлительно удалим её. Файлы для обмена на трекере предоставлены пользователями сайта, и администрация не несёт ответственности за их содержание. Просьба не заливать файлы, защищенные авторскими правами, а также файлы нелегального содержания!
cron