Filthy Girls / Гадкие девицы / Развратные крошки (Andrew Youngman, 21 Sextury) [2008 г., Gonzo, Anal, European, All sex, DVDRip] Yasmine Gold, Hon, Julia, Regina Moon, Tira, Jenny Baby [rus](с русским переводом)

 Статистика раздачи 
Размер: 1.56 ГБ   |  Зарегистрирован: 05 сен 2015, 02:06   |   .torrent скачан: 2 раз
Сидеров: 3  [ 0 байт/сек ]     Личеров: 1  [ 0 байт/сек ]  
  
Аватара пользователя
Раздал: 130.41 ГБ
Скачал: 45.05 ГБ
Ратио: 2.895
Сообщения: 349589
Зарегистрирован: 27 июл 2015, 20:38

Filthy Girls / Гадкие девицы / Развратные крошки (Andrew Youngman, 21 Sextury) [2008 г., Gonzo, Anal, European, All sex, DVDRip] Yasmine Gold, Hon, Julia, Regina Moon, Tira, Jenny Baby [rus](с русским переводом)

Сообщение MalonE » 11 мар 2013, 23:31


#77Оригинальное название: Filthy Girls
Год выхода: 2008
Страна: Германия
Жанр: Анальный Секс, Гонзо, Классический Секс, Молоденькие Девушки 18-21 год
Продолжительность: 02:54:15
Режиссер: Эндрю Янгмен (Andrew Youngman)
Студия:
В ролях: Bailey, Tira, Регина Мун /Regina Moon/, Жасмин Руж /Jasmine Rouge/, Джени Бейби /Jeny Baby/, Джина Бич, Cherie, Courtney-Перевод: Любительский (двухголосый, ПорноКино.ру)
Субтитры: нет-Описание: This is as filthy as it gets, these girls cannot get off unless they are being fucked hard, and fucked nasty. Watch as they devour these cocks in their tight little pussies and even tighter little assholes. If you are looking for some filthy girls then you have cum to the right place!
These girls love to get nasty. There's nothing these sexy sluts won't do. Some girls are dirty and some are just down right filthy. These girls are filth in filthy!
-Описание
Их жизненное кредо - тяжелые формы петтинга, возведённые в куб. А так восторженно и головоломно заниматься сексом могут только девушки, генетически предрасположенные к разврату самой природой. Трехчасовой сеанс общения с этими крошками приведёт к серии беспрерывных сногсшибательных оргазмов! А главное, что к признанным звездам взрослого видео Реджине Мур, Жасмин Руж и Джине Бич подтягиваются и жарко прижимаются новые надежды "горячего кино" - юная, но ненасытная Байлей, "мисс горячий ротик" Тира и заработавшая своей отпадной задницей первые кинобонусы неотразимая Кортни...
-Качество: DVDRip
Формат: AVI
Видео кодек: XviD
Видео: XviD 64, 720x544 (4:3), 25 fps, 1085 kbps avg, 0.111 bit/pixel
Аудио кодек: AC3
Звук: AC3 Dolby Digital, 48 kHz, 2/0 (L,R) ch, 192.00 kbps avg
Scene Breakdowns:
Scene 01: Regina Moon, Zenza Raggi
Scene 02: Tira, James Brossman
Scene 03: Jenny Baby, Frank Gun
Scene 04: Yasmine Gold, James Brossman
Scene 05: Hon, Kid Jamaica
Scene 06: Julia, Zenza Raggi
Скринлист:
Скриншоты:


Actresses:





Тех.данные:
...Filthy Girls.avi
General
Complete name : Filthy Girls.avi
Format : AVI
Format/Info : Audio Video Interleave
File size : 1.56 GiB
Duration : 2h 54mn
Overall bit rate : 1 283 Kbps
Writing application : VirtualDubMod 1.5.4.1 (build 2178/release)
Writing library : VirtualDubMod build 2178/release
Video #0
ID : 0
Format : MPEG-4 Visual
Format profile : Advanced [email protected]
Format settings, BVOP : 1
Format settings, QPel : No
Format settings, GMC : No warppoints
Format settings, Matrix : Custom
Codec ID : XVID
Codec ID/Hint : XviD
Duration : 2h 54mn
Bit rate : 1 085 Kbps
Width : 720 pixels
Height : 544 pixels
Display aspect ratio : 4:3
Frame rate : 25.000 fps
Color space : YUV
Chroma subsampling : 4:2:0
Bit depth : 8 bits
Scan type : Progressive
Compression mode : Lossy
Bits/(Pixel*Frame) : 0.111
Stream size : 1.32 GiB (85%)
Writing library : XviD 64
Audio #1
ID : 1
Format : AC-3
Format/Info : Audio Coding 3
Mode extension : CM (complete main)
Codec ID : 2000
Duration : 2h 54mn
Bit rate mode : Constant
Bit rate : 192 Kbps
Channel(s) : 2 channels
Channel positions : Front: L R
Sampling rate : 48.0 KHz
Bit depth : 16 bits
Compression mode : Lossy
Stream size : 239 MiB (15%)
Alignment : Split accross interleaves
Interleave, duration : 96 ms (2.40 video frames)
Interleave, preload duration : 96 ms
Language : Russian
 
   
Торрент:
Зарегистрирован [05 сен 2015, 02:06]
Скачать торрент Магнет ссылка
Скачать торрент
[ Размер 15.99 КБ / Просмотров 5 ]
Статус:
Проверен
 
.torrent скачан: 2 раз
Хэш: 3ef4e7edcb3763684195e28ff5f6613d3c35b0fc
Размер: 1.56 ГБ (1 677 242 368 байт)
 

Вернуться в Гонзо-фильмы / Gonzo

Кто сейчас на конференции

Сейчас эту тему просматривают: нет зарегистрированных пользователей и гости: 1


Ресурс не предоставляет электронные версии произведений, а занимается лишь коллекционированием и каталогизацией ссылок, присылаемых и публикуемых на форуме нашими читателями. Если вы являетесь правообладателем какого-либо представленного материала и не желаете чтобы ссылка на него находилась в нашем каталоге, свяжитесь с нами и мы незамедлительно удалим её. Файлы для обмена на трекере предоставлены пользователями сайта, и администрация не несёт ответственности за их содержание. Просьба не заливать файлы, защищенные авторскими правами, а также файлы нелегального содержания!
cron