Hardcore Fever 3 / Fuck the Beauty / Трахнуть красотку / Порно лихорадка 3 (John Walton, 21 Sextury) [2006 г., Gonzo, all sex, anal, european girls, DVDRip]Valentina Velasques, Liliane Tiger, Lucy Love, Simony Diamond [rus](с русским переводом)

 Статистика раздачи 
Размер: 1.66 ГБ   |  Зарегистрирован: 05 сен 2015, 02:04   |   .torrent скачан: 0 раз
Сидеров: 3  [ 0 байт/сек ]     Личеров: 0  [ 0 байт/сек ]  
  
Аватара пользователя
Раздал: 130.41 ГБ
Скачал: 45.05 ГБ
Ратио: 2.895
Сообщения: 349589
Зарегистрирован: 27 июл 2015, 20:38

Hardcore Fever 3 / Fuck the Beauty / Трахнуть красотку / Порно лихорадка 3 (John Walton, 21 Sextury) [2006 г., Gonzo, all sex, anal, european girls, DVDRip]Valentina Velasques, Liliane Tiger, Lucy Love, Simony Diamond [rus](с русским переводом)

Сообщение MalonE » 12 мар 2013, 09:22


#77Оригинальное название: Hardcore Fever 3
Альтернативное название: Fuck the Beauty
Год выхода: 2006
Страна: Германия
Жанр: Анальный Секс, Гонзо, Классический Секс
Продолжительность: 02:51:39
Режиссер: Джон Уолтон (John Walton)
Студия:
В ролях: Зафира /Zafira/, Лилиан Тайгер /Liliane Tiger/, Виктория Свингер /Victoria Swinger/, Люси Лав /Lucy Love/, Вероника Да Соуза /Veronica Da Souza/, Симони Даймонд /Simony Diamond/, Валентина Веласкес /Valentina Velasques/, Кори Бейби /Cory Baby/ (Coreena), Сэнди /Sandy/, Laura, Tom, Френк Ган /Frank Gun/, Thomas, Джордж Ухл /George Uhl/, George Reno, Reeves -Перевод: Любительский (двухголосый, ПорноКино.ру)
Субтитры: нет-Описание: Join these hotties for seven scenes, four of them anal, of hardcore action. Watch them fuck and suck for your viewing pleasure. This is HARDCORE action at it's best. These sluts have caught the fever and are fucking and sucking wild! Don't miss all of the hardcore sex!-Присоединяйтесь к этим крошкам в семи горячих жестких сценах, четыре их них с аналом. Наблюдайте как они трахаются и сосут с видимым удовольствием. Это жесткое порно - одно из лучших. Эти шлюхи лихорадочно трахаются и сосут. Не пропустите весь этот жесткий секс!-Описание
Сядьте, расслабьтесь и получите удовольствие от того, как наши парни поработают с этими девочками. Они отделают этих красоток по полной, к взаимному удовольствию обеих сторон. Вы увидите круглую попку Вероники де Суза, ослепительную блондинку Викторию Свингер, развратную Лилиан Тайгер и даже такую редкость, как Зафира, которая до этого снималась только в лесбийских эпизодах. И совершенно точно нельзя пропустить сцену, где Саймони Даймонд удовлетворят сразу трое! Этот фильм просто должен быть у Вас, если Вам нравятся европейские красотки и порно с их участием. Еще не убеждены? Тогда посмотрите сами!
-Качество: DVDRip
Формат: AVI
Видео кодек: XviD
Видео: XviD 64, 720x544 (4:3), 25 fps, 1185 kbps avg, 0.121 bit/pixel
Аудио кодек: AC3
Звук: AC3 Dolby Digital, 48 kHz, 2/0 (L,R) ch, 192.00 kbps avg
Scene Breakdowns:
Scene 01: Veronica Da Souza, George Uhl
Scene 02: Valentina Velasques, Frank Gun
Scene 03: Victoria Swinger, Roly Reeves
Scene 04: Lucy Love, Thomas Crown
Scene 05: Zafira, guy
Scene 06: Liliane Tiger, George Reno
Scene 07: Simony Diamond
Скринлист:
Скриншоты:


Actresses:
Тех.данные:
...Hardcore Fever 3.avi
General
Complete name : Hardcore Fever 3.avi
Format : AVI
Format/Info : Audio Video Interleave
File size : 1.66 GiB
Duration : 2h 51mn
Overall bit rate : 1 384 Kbps
Writing application : VirtualDubMod 1.5.4.1 (build 2178/release)
Writing library : VirtualDubMod build 2178/release
Video #0
ID : 0
Format : MPEG-4 Visual
Format profile : Advanced [email protected]
Format settings, BVOP : 1
Format settings, QPel : No
Format settings, GMC : No warppoints
Format settings, Matrix : Custom
Codec ID : XVID
Codec ID/Hint : XviD
Duration : 2h 51mn
Bit rate : 1 185 Kbps
Width : 720 pixels
Height : 544 pixels
Display aspect ratio : 4:3
Frame rate : 25.000 fps
Color space : YUV
Chroma subsampling : 4:2:0
Bit depth : 8 bits
Scan type : Progressive
Compression mode : Lossy
Bits/(Pixel*Frame) : 0.121
Stream size : 1.42 GiB (86%)
Writing library : XviD 64
Audio #1
ID : 1
Format : AC-3
Format/Info : Audio Coding 3
Mode extension : CM (complete main)
Codec ID : 2000
Duration : 2h 51mn
Bit rate mode : Constant
Bit rate : 192 Kbps
Channel(s) : 2 channels
Channel positions : Front: L R
Sampling rate : 48.0 KHz
Bit depth : 16 bits
Compression mode : Lossy
Stream size : 236 MiB (14%)
Alignment : Split accross interleaves
Interleave, duration : 96 ms (2.40 video frames)
Interleave, preload duration : 96 ms
Language : Russian
 
   
Торрент:
Зарегистрирован [05 сен 2015, 02:04]
Скачать торрент Магнет ссылка
Скачать торрент
[ Размер 16.97 КБ / Просмотров 2 ]
Статус:
Проверен
 
.torrent скачан: 0 раз
Хэш: 5bf75471dbfb7599060b8a1d1efeb1eaf68c0570
Размер: 1.66 ГБ (1 782 167 552 байт)
 

Вернуться в Гонзо-фильмы / Gonzo

Кто сейчас на конференции

Сейчас эту тему просматривают: нет зарегистрированных пользователей и гости: 1


Ресурс не предоставляет электронные версии произведений, а занимается лишь коллекционированием и каталогизацией ссылок, присылаемых и публикуемых на форуме нашими читателями. Если вы являетесь правообладателем какого-либо представленного материала и не желаете чтобы ссылка на него находилась в нашем каталоге, свяжитесь с нами и мы незамедлительно удалим её. Файлы для обмена на трекере предоставлены пользователями сайта, и администрация не несёт ответственности за их содержание. Просьба не заливать файлы, защищенные авторскими правами, а также файлы нелегального содержания!
cron