Latin Ass Factor 2 / Латинский жопный фактор 2 (Pandemonium, Daisy Marie) [2009 г., Anal, Latina, Creampie, Tattoo, Fishnet, (Split scenes), DVDRip]

 Статистика раздачи 
Размер: 1.07 ГБ   |  Зарегистрирован: 05 сен 2015, 02:03   |   .torrent скачан: 0 раз
Сидеров: 3  [ 0 байт/сек ]     Личеров: 0  [ 0 байт/сек ]  
  
Аватара пользователя
Раздал: 130.41 ГБ
Скачал: 45.05 ГБ
Ратио: 2.895
Сообщения: 349589
Зарегистрирован: 27 июл 2015, 20:38

Latin Ass Factor 2 / Латинский жопный фактор 2 (Pandemonium, Daisy Marie) [2009 г., Anal, Latina, Creampie, Tattoo, Fishnet, (Split scenes), DVDRip]

Сообщение MalonE » 12 мар 2013, 11:18

Latin Ass Factor 2 / Латинский жопный фактор 2 Год производства: 2009 г.
Жанр: Anal, Latina, Creampie, Tattoo, Fishnet
Продолжительность: 89 mins
Язык: Английский
Студия: pandemonium
В ролях: daisy marie, tiana lynn, megan martinez, emma, katlin
Описание: Oh those sweet asses! These girls have the Latin Ass Factor goin' on! These beautiful Latinas really like to get fucked hard and deep, and the more frantically you slam them, the juicier and wetter their little love holes get.Качество видео: DVDRip
Формат видео: AVI
Видео кодек: XviD
Аудио кодек: MP3
подробно
Format : AVI
Format/Info : Audio Video Interleave
File size : 219 MiB
Duration : 18mn 23s
Overall bit rate : 1 664 Kbps
Writing application : MEncoder 1.0rc1-4.1.2
Writing library : MPlayer
Video
ID : 0
Format : MPEG-4 Visual
Format profile : Advanced [email protected]
Format settings, BVOP : Yes
Format settings, QPel : No
Format settings, GMC : No warppoints
Format settings, Matrix : Default (H.263)
Codec ID : XVID
Codec ID/Hint : XviD
Duration : 18mn 23s
Bit rate : 1 581 Kbps
Width : 640 pixels
Height : 480 pixels
Display aspect ratio : 4:3
Frame rate : 30.303 fps
Color space : YUV
Chroma subsampling : 4:2:0
Bit depth : 8 bits
Scan type : Progressive
Bits/(Pixel*Frame) : 0.170
Stream size : 208 MiB (95%)
Writing library : XviD 1.1.0 (UTC 2005-11-22)
Audio
ID : 1
Format : MPEG Audio
Format version : Version 1
Format profile : Layer 3
Mode : Joint stereo
Mode extension : MS Stereo
Codec ID : 55
Codec ID/Hint : MP3
Duration : 18mn 23s
Bit rate mode : Variable
Bit rate : 69.9 Kbps
Channel(s) : 2 channels
Sampling rate : 48.0 KHz
Stream size : 9.20 MiB (4%)
Alignment : Aligned on interleaves
Interleave, duration : 24 ms (0.73 video frame)
Interleave, preload duration : 455 ms
Скриншоты




 
   
Торрент:
Зарегистрирован [05 сен 2015, 02:03]
Скачать торрент Магнет ссылка
Скачать торрент
[ Размер 11.52 КБ / Просмотров 1 ]
Статус:
Проверен
 
.torrent скачан: 0 раз
Хэш: a7cb6ca705c2c7d1cd0b7c2cec4b3963c7821a5b
Размер: 1.07 ГБ (1 151 979 759 байт)
 

Вернуться в Гонзо-фильмы / Gonzo

Кто сейчас на конференции

Сейчас эту тему просматривают: нет зарегистрированных пользователей и гости: 1


Ресурс не предоставляет электронные версии произведений, а занимается лишь коллекционированием и каталогизацией ссылок, присылаемых и публикуемых на форуме нашими читателями. Если вы являетесь правообладателем какого-либо представленного материала и не желаете чтобы ссылка на него находилась в нашем каталоге, свяжитесь с нами и мы незамедлительно удалим её. Файлы для обмена на трекере предоставлены пользователями сайта, и администрация не несёт ответственности за их содержание. Просьба не заливать файлы, защищенные авторскими правами, а также файлы нелегального содержания!
cron