Euro Angels 2 / Евро Ангелки 2 (Christoph Clark, Evil Angel) [1997 г., Gonzo, DVDRip]

 Статистика раздачи 
Размер: 859.75 МБ   |  Зарегистрирован: 05 сен 2015, 02:03   |   .torrent скачан: 0 раз
Сидеров: 3  [ 0 байт/сек ]     Личеров: 45  [ 0 байт/сек ]  
  
Аватара пользователя
Раздал: 130.41 ГБ
Скачал: 45.05 ГБ
Ратио: 2.895
Сообщения: 349589
Зарегистрирован: 27 июл 2015, 20:38

Euro Angels 2 / Евро Ангелки 2 (Christoph Clark, Evil Angel) [1997 г., Gonzo, DVDRip]

Сообщение MalonE » 12 мар 2013, 11:20

Euro Angels 2 / Евро Ангелки 2
#77Год производства: 1997 г.
Страна: Hungary
Жанр: Gonzo
Продолжительность: 02:11:13
Язык: Английский
Режиссер: Christoph Clark
Студия: Evil Angel
В ролях
Caren, Judith Kostner (as Christie), Eniko, Gabby, Katy, Lydia (as Orsi), Szilvia, Timea (as Yvette)
Описание
The first tape for the Evil Empire. Every girl in this tape just Smokes: seriously pretty girls with seemingly no inhibitions, and no problem taking three dicks at the same time in every orifice under any conditions!
Качество видео: DVDRip
Формат видео: AVI
Видео кодек: XviD
Аудио кодек: MP3
Видео: 512x368, 25fps, 778kbps
Аудио: 48khz, 2ch, 128kbps
Media Info
General
Complete name : D:\Euro Angels 2.avi
Format : AVI
Format/Info : Audio Video Interleave
File size : 860 MiB
Duration : 2h 11mn
Overall bit rate : 916 Kbps
Writing application : FairUse Wizard - http://fairusewizard.com
Writing library : Boilsoft AVI tool build 1/release
Video
ID : 0
Format : MPEG-4 Visual
Format profile : Advanced [email protected]
Format settings, BVOP : 1
Format settings, QPel : No
Format settings, GMC : No warppoints
Format settings, Matrix : Default (H.263)
Muxing mode : Packed bitstream
Codec ID : XVID
Codec ID/Hint : XviD
Duration : 2h 11mn
Bit rate : 778 Kbps
Width : 512 pixels
Height : 368 pixels
Display aspect ratio : 1.391
Frame rate : 25.000 fps
Color space : YUV
Chroma subsampling : 4:2:0
Bit depth : 8 bits
Scan type : Progressive
Compression mode : Lossy
Bits/(Pixel*Frame) : 0.165
Stream size : 731 MiB (85%)
Writing library : XviD 1.1.0 (UTC 2005-11-22)
Audio
ID : 1
Format : MPEG Audio
Format version : Version 1
Format profile : Layer 3
Mode : Joint stereo
Mode extension : MS Stereo
Codec ID : 55
Codec ID/Hint : MP3
Duration : 2h 11mn
Bit rate mode : Constant
Bit rate : 128 Kbps
Channel(s) : 2 channels
Sampling rate : 48.0 KHz
Compression mode : Lossy
Stream size : 120 MiB (14%)
Alignment : Aligned on interleaves
Interleave, duration : 40 ms (1.00 video frame)
Interleave, preload duration : 504 ms
Writing library : LAME3.97 (beta)ЄЄЄ¶
Скриншоты
 
   
Торрент:
Зарегистрирован [05 сен 2015, 02:03]
Скачать торрент Магнет ссылка
Скачать торрент
[ Размер 17.28 КБ / Просмотров 33 ]
Статус:
Проверен
 
.torrent скачан: 0 раз
Хэш: 0423a2f322adf4c19d203f9fd1e18c7deded8551
Размер: 859.75 МБ (901 511 892 байт)
 

Вернуться в Гонзо-фильмы / Gonzo

Кто сейчас на конференции

Сейчас эту тему просматривают: нет зарегистрированных пользователей и гости: 1


Ресурс не предоставляет электронные версии произведений, а занимается лишь коллекционированием и каталогизацией ссылок, присылаемых и публикуемых на форуме нашими читателями. Если вы являетесь правообладателем какого-либо представленного материала и не желаете чтобы ссылка на него находилась в нашем каталоге, свяжитесь с нами и мы незамедлительно удалим её. Файлы для обмена на трекере предоставлены пользователями сайта, и администрация не несёт ответственности за их содержание. Просьба не заливать файлы, защищенные авторскими правами, а также файлы нелегального содержания!
cron