Naughty Noobies 2 / Непослушные Нубы 2 (Tom Byron, Tom Byron Pictures) [2011 г., Cumshots, Facials, Gonzo, Oral, Straight Sex, VOD]

 Статистика раздачи 
Размер: 1.14 ГБ   |  Зарегистрирован: 05 сен 2015, 01:59   |   .torrent скачан: 0 раз
Сидеров: 3  [ 0 байт/сек ]     Личеров: 0  [ 0 байт/сек ]  
  
Аватара пользователя
Раздал: 130.41 ГБ
Скачал: 45.05 ГБ
Ратио: 2.895
Сообщения: 349589
Зарегистрирован: 27 июл 2015, 20:38

Naughty Noobies 2 / Непослушные Нубы 2 (Tom Byron, Tom Byron Pictures) [2011 г., Cumshots, Facials, Gonzo, Oral, Straight Sex, VOD]

Сообщение MalonE » 12 мар 2013, 14:35

Naughty Noobies 2 / Непослушные Нубы 2Год производства: 2011 г.
Страна: USA
Жанр: Cumshots, Facials, Gonzo, Oral, Straight Sex
Продолжительность: 02:14:27
Язык: Английский
Режиссер: Tom Byron
Студия: Tom Byron Pictures
В ролях: Ashlynn Leigh, Imani Rose, Kaylee Hilton, Lynxie Fox, Talia Palmer
Описание: Get crazy with some fresh and horny teens! These girls may be new but you can see they already know what they’re doing… Calling them “naughty” is just being nice!
Качество видео: VOD
Формат видео: MP4
Видео кодек: H.264/AVC
Аудио кодек: AAC-MediaInfo:
Scene 1
General
Complete name : \Naughty Noobies 2\Naughty Noobies 2, Scene 1 - Talia Palmer.mp4
Format : MPEG-4
Format profile : Base Media / Version 2
Codec ID : mp42
File size : 198 MiB
Duration : 22mn 43s
Overall bit rate mode : Variable
Overall bit rate : 1 216 Kbps
Encoded date : UTC 2011-08-27 16:41:53
Tagged date : UTC 2011-08-27 19:36:06
Writing application : HandBrake 0.9.3 2008112300
Video
ID : 1
Format : AVC
Format/Info : Advanced Video Codec
Format profile : [email protected]
Format settings, CABAC : Yes
Format settings, ReFrames : 3 frames
Codec ID : avc1
Codec ID/Info : Advanced Video Coding
Duration : 22mn 43s
Bit rate mode : Variable
Bit rate : 1 136 Kbps
Width : 848 pixels
Height : 480 pixels
Display aspect ratio : 16:9
Frame rate mode : Variable
Frame rate : 29.970 fps
Minimum frame rate : 15.773 fps
Maximum frame rate : 30.000 fps
Color space : YUV
Chroma subsampling : 4:2:0
Bit depth : 8 bits
Scan type : Progressive
Bits/(Pixel*Frame) : 0.093
Stream size : 185 MiB (93%)
Writing library : x264 core 65
Encoding settings : cabac=1 / ref=3 / deblock=1:0:0 / analyse=0x3:0x133 / me=umh / subme=9 / psy_rd=1.0:1.0 / mixed_ref=1 / me_range=16 / chroma_me=1 / trellis=1 / 8x8dct=1 / cqm=0 / deadzone=21,11 / chroma_qp_offset=-4 / threads=12 / nr=150 / decimate=1 / mbaff=0 / bframes=6 / b_pyramid=1 / b_adapt=1 / b_bias=0 / direct=3 / wpredb=1 / keyint=30 / keyint_min=16 / scenecut=40(pre) / rc=2pass / bitrate=1136 / ratetol=1.0 / qcomp=0.60 / qpmin=10 / qpmax=51 / qpstep=4 / cplxblur=20.0 / qblur=0.5 / ip_ratio=1.40 / pb_ratio=1.30 / aq=1:1.00
Language : English
Encoded date : UTC 2011-08-27 16:41:53
Tagged date : UTC 2011-08-27 19:36:06
Color primaries : BT.709-5, BT.1361, IEC 61966-2-4, SMPTE RP177
Transfer characteristics : BT.709-5, BT.1361
Matrix coefficients : BT.709-5, BT.1361, IEC 61966-2-4 709, SMPTE RP177
Audio
ID : 2
Format : AAC
Format/Info : Advanced Audio Codec
Format profile : LC
Codec ID : 40
Duration : 22mn 43s
Bit rate mode : Variable
Bit rate : 76.0 Kbps
Maximum bit rate : 97.8 Kbps
Channel(s) : 2 channels
Channel positions : Front: L R
Sampling rate : 22.05 KHz
Compression mode : Lossy
Stream size : 12.4 MiB (6%)
Encoded date : UTC 2011-08-27 16:41:53
Tagged date : UTC 2011-08-27 19:34:34
Scene 2
General
Complete name : \Naughty Noobies 2\Naughty Noobies 2, Scene 2 - Imani Rose.mp4
Format : MPEG-4
Format profile : Base Media / Version 2
Codec ID : mp42
File size : 191 MiB
Duration : 21mn 59s
Overall bit rate mode : Variable
Overall bit rate : 1 216 Kbps
Encoded date : UTC 2011-08-27 16:18:35
Tagged date : UTC 2011-08-27 19:01:59
Writing application : HandBrake 0.9.3 2008112300
Video
ID : 1
Format : AVC
Format/Info : Advanced Video Codec
Format profile : [email protected]
Format settings, CABAC : Yes
Format settings, ReFrames : 3 frames
Codec ID : avc1
Codec ID/Info : Advanced Video Coding
Duration : 21mn 59s
Bit rate mode : Variable
Bit rate : 1 136 Kbps
Width : 848 pixels
Height : 480 pixels
Display aspect ratio : 16:9
Frame rate mode : Variable
Frame rate : 29.970 fps
Minimum frame rate : 15.773 fps
Maximum frame rate : 30.000 fps
Color space : YUV
Chroma subsampling : 4:2:0
Bit depth : 8 bits
Scan type : Progressive
Bits/(Pixel*Frame) : 0.093
Stream size : 179 MiB (93%)
Writing library : x264 core 65
Encoding settings : cabac=1 / ref=3 / deblock=1:0:0 / analyse=0x3:0x133 / me=umh / subme=9 / psy_rd=1.0:1.0 / mixed_ref=1 / me_range=16 / chroma_me=1 / trellis=1 / 8x8dct=1 / cqm=0 / deadzone=21,11 / chroma_qp_offset=-4 / threads=12 / nr=150 / decimate=1 / mbaff=0 / bframes=6 / b_pyramid=1 / b_adapt=1 / b_bias=0 / direct=3 / wpredb=1 / keyint=30 / keyint_min=16 / scenecut=40(pre) / rc=2pass / bitrate=1136 / ratetol=1.0 / qcomp=0.60 / qpmin=10 / qpmax=51 / qpstep=4 / cplxblur=20.0 / qblur=0.5 / ip_ratio=1.40 / pb_ratio=1.30 / aq=1:1.00
Language : English
Encoded date : UTC 2011-08-27 16:18:35
Tagged date : UTC 2011-08-27 19:01:59
Color primaries : BT.709-5, BT.1361, IEC 61966-2-4, SMPTE RP177
Transfer characteristics : BT.709-5, BT.1361
Matrix coefficients : BT.709-5, BT.1361, IEC 61966-2-4 709, SMPTE RP177
Audio
ID : 2
Format : AAC
Format/Info : Advanced Audio Codec
Format profile : LC
Codec ID : 40
Duration : 21mn 59s
Bit rate mode : Variable
Bit rate : 76.0 Kbps
Maximum bit rate : 105 Kbps
Channel(s) : 2 channels
Channel positions : Front: L R
Sampling rate : 22.05 KHz
Compression mode : Lossy
Stream size : 11.9 MiB (6%)
Encoded date : UTC 2011-08-27 16:18:35
Tagged date : UTC 2011-08-27 19:00:23
Scene 3
General
Complete name : \Naughty Noobies 2\Naughty Noobies 2, Scene 3 - Lynxie Fox.mp4
Format : MPEG-4
Format profile : Base Media / Version 2
Codec ID : mp42
File size : 235 MiB
Duration : 26mn 57s
Overall bit rate mode : Variable
Overall bit rate : 1 216 Kbps
Encoded date : UTC 2011-08-27 16:50:13
Tagged date : UTC 2011-08-27 20:17:22
Writing application : HandBrake 0.9.3 2008112300
Video
ID : 1
Format : AVC
Format/Info : Advanced Video Codec
Format profile : [email protected]
Format settings, CABAC : Yes
Format settings, ReFrames : 3 frames
Codec ID : avc1
Codec ID/Info : Advanced Video Coding
Duration : 26mn 57s
Bit rate mode : Variable
Bit rate : 1 136 Kbps
Width : 848 pixels
Height : 480 pixels
Display aspect ratio : 16:9
Frame rate mode : Variable
Frame rate : 29.970 fps
Minimum frame rate : 15.773 fps
Maximum frame rate : 30.000 fps
Color space : YUV
Chroma subsampling : 4:2:0
Bit depth : 8 bits
Scan type : Progressive
Bits/(Pixel*Frame) : 0.093
Stream size : 219 MiB (93%)
Writing library : x264 core 65
Encoding settings : cabac=1 / ref=3 / deblock=1:0:0 / analyse=0x3:0x133 / me=umh / subme=9 / psy_rd=1.0:1.0 / mixed_ref=1 / me_range=16 / chroma_me=1 / trellis=1 / 8x8dct=1 / cqm=0 / deadzone=21,11 / chroma_qp_offset=-4 / threads=12 / nr=150 / decimate=1 / mbaff=0 / bframes=6 / b_pyramid=1 / b_adapt=1 / b_bias=0 / direct=3 / wpredb=1 / keyint=30 / keyint_min=16 / scenecut=40(pre) / rc=2pass / bitrate=1136 / ratetol=1.0 / qcomp=0.60 / qpmin=10 / qpmax=51 / qpstep=4 / cplxblur=20.0 / qblur=0.5 / ip_ratio=1.40 / pb_ratio=1.30 / aq=1:1.00
Language : English
Encoded date : UTC 2011-08-27 16:50:13
Tagged date : UTC 2011-08-27 20:17:22
Color primaries : BT.709-5, BT.1361, IEC 61966-2-4, SMPTE RP177
Transfer characteristics : BT.709-5, BT.1361
Matrix coefficients : BT.709-5, BT.1361, IEC 61966-2-4 709, SMPTE RP177
Audio
ID : 2
Format : AAC
Format/Info : Advanced Audio Codec
Format profile : LC
Codec ID : 40
Duration : 26mn 57s
Bit rate mode : Variable
Bit rate : 76.0 Kbps
Maximum bit rate : 97.5 Kbps
Channel(s) : 2 channels
Channel positions : Front: L R
Sampling rate : 22.05 KHz
Compression mode : Lossy
Stream size : 14.7 MiB (6%)
Encoded date : UTC 2011-08-27 16:50:13
Tagged date : UTC 2011-08-27 20:15:59
Scene 4
General
Complete name : \Naughty Noobies 2\Naughty Noobies 2, Scene 4 - Kaylee Hilton.mp4
Format : MPEG-4
Format profile : Base Media / Version 2
Codec ID : mp42
File size : 218 MiB
Duration : 25mn 4s
Overall bit rate mode : Variable
Overall bit rate : 1 216 Kbps
Encoded date : UTC 2011-08-27 16:09:55
Tagged date : UTC 2011-08-27 18:38:43
Writing application : HandBrake 0.9.3 2008112300
Video
ID : 1
Format : AVC
Format/Info : Advanced Video Codec
Format profile : [email protected]
Format settings, CABAC : Yes
Format settings, ReFrames : 3 frames
Codec ID : avc1
Codec ID/Info : Advanced Video Coding
Duration : 25mn 4s
Bit rate mode : Variable
Bit rate : 1 136 Kbps
Width : 848 pixels
Height : 480 pixels
Display aspect ratio : 16:9
Frame rate mode : Variable
Frame rate : 29.970 fps
Minimum frame rate : 15.773 fps
Maximum frame rate : 30.000 fps
Color space : YUV
Chroma subsampling : 4:2:0
Bit depth : 8 bits
Scan type : Progressive
Bits/(Pixel*Frame) : 0.093
Stream size : 204 MiB (93%)
Writing library : x264 core 65
Encoding settings : cabac=1 / ref=3 / deblock=1:0:0 / analyse=0x3:0x133 / me=umh / subme=9 / psy_rd=1.0:1.0 / mixed_ref=1 / me_range=16 / chroma_me=1 / trellis=1 / 8x8dct=1 / cqm=0 / deadzone=21,11 / chroma_qp_offset=-4 / threads=12 / nr=150 / decimate=1 / mbaff=0 / bframes=6 / b_pyramid=1 / b_adapt=1 / b_bias=0 / direct=3 / wpredb=1 / keyint=30 / keyint_min=16 / scenecut=40(pre) / rc=2pass / bitrate=1136 / ratetol=1.0 / qcomp=0.60 / qpmin=10 / qpmax=51 / qpstep=4 / cplxblur=20.0 / qblur=0.5 / ip_ratio=1.40 / pb_ratio=1.30 / aq=1:1.00
Language : English
Encoded date : UTC 2011-08-27 16:09:55
Tagged date : UTC 2011-08-27 18:38:43
Color primaries : BT.709-5, BT.1361, IEC 61966-2-4, SMPTE RP177
Transfer characteristics : BT.709-5, BT.1361
Matrix coefficients : BT.709-5, BT.1361, IEC 61966-2-4 709, SMPTE RP177
Audio
ID : 2
Format : AAC
Format/Info : Advanced Audio Codec
Format profile : LC
Codec ID : 40
Duration : 25mn 4s
Bit rate mode : Variable
Bit rate : 76.0 Kbps
Maximum bit rate : 98.4 Kbps
Channel(s) : 2 channels
Channel positions : Front: L R
Sampling rate : 22.05 KHz
Compression mode : Lossy
Stream size : 13.6 MiB (6%)
Encoded date : UTC 2011-08-27 16:09:55
Tagged date : UTC 2011-08-27 18:37:26
Scene 5
General
Complete name : \Naughty Noobies 2\Naughty Noobies 2, Scene 5 - Ashlynn Leigh.mp4
Format : MPEG-4
Format profile : Base Media / Version 2
Codec ID : mp42
File size : 210 MiB
Duration : 24mn 9s
Overall bit rate mode : Variable
Overall bit rate : 1 216 Kbps
Encoded date : UTC 2011-08-27 16:08:54
Tagged date : UTC 2011-08-27 19:18:29
Writing application : HandBrake 0.9.3 2008112300
Video
ID : 1
Format : AVC
Format/Info : Advanced Video Codec
Format profile : [email protected]
Format settings, CABAC : Yes
Format settings, ReFrames : 3 frames
Codec ID : avc1
Codec ID/Info : Advanced Video Coding
Duration : 24mn 9s
Bit rate mode : Variable
Bit rate : 1 136 Kbps
Width : 848 pixels
Height : 480 pixels
Display aspect ratio : 16:9
Frame rate mode : Variable
Frame rate : 29.970 fps
Minimum frame rate : 15.773 fps
Maximum frame rate : 30.000 fps
Color space : YUV
Chroma subsampling : 4:2:0
Bit depth : 8 bits
Scan type : Progressive
Bits/(Pixel*Frame) : 0.093
Stream size : 196 MiB (93%)
Writing library : x264 core 65
Encoding settings : cabac=1 / ref=3 / deblock=1:0:0 / analyse=0x3:0x133 / me=umh / subme=9 / psy_rd=1.0:1.0 / mixed_ref=1 / me_range=16 / chroma_me=1 / trellis=1 / 8x8dct=1 / cqm=0 / deadzone=21,11 / chroma_qp_offset=-4 / threads=12 / nr=150 / decimate=1 / mbaff=0 / bframes=6 / b_pyramid=1 / b_adapt=1 / b_bias=0 / direct=3 / wpredb=1 / keyint=30 / keyint_min=16 / scenecut=40(pre) / rc=2pass / bitrate=1136 / ratetol=1.0 / qcomp=0.60 / qpmin=10 / qpmax=51 / qpstep=4 / cplxblur=20.0 / qblur=0.5 / ip_ratio=1.40 / pb_ratio=1.30 / aq=1:1.00
Language : English
Encoded date : UTC 2011-08-27 16:08:54
Tagged date : UTC 2011-08-27 19:18:29
Color primaries : BT.709-5, BT.1361, IEC 61966-2-4, SMPTE RP177
Transfer characteristics : BT.709-5, BT.1361
Matrix coefficients : BT.709-5, BT.1361, IEC 61966-2-4 709, SMPTE RP177
Audio
ID : 2
Format : AAC
Format/Info : Advanced Audio Codec
Format profile : LC
Codec ID : 40
Duration : 24mn 9s
Bit rate mode : Variable
Bit rate : 76.0 Kbps
Maximum bit rate : 99.8 Kbps
Channel(s) : 2 channels
Channel positions : Front: L R
Sampling rate : 22.05 KHz
Compression mode : Lossy
Stream size : 13.1 MiB (6%)
Encoded date : UTC 2011-08-27 16:08:54
Tagged date : UTC 2011-08-27 19:16:44
Scene 6
General
Complete name : \Naughty Noobies 2\Naughty Noobies 2, Scene 6 - Behind The Scenes.mp4
Format : MPEG-4
Format profile : Base Media / Version 2
Codec ID : mp42
File size : 118 MiB
Duration : 13mn 32s
Overall bit rate mode : Variable
Overall bit rate : 1 217 Kbps
Encoded date : UTC 2011-08-27 14:44:39
Tagged date : UTC 2011-08-27 16:17:09
Writing application : HandBrake 0.9.3 2008112300
Video
ID : 1
Format : AVC
Format/Info : Advanced Video Codec
Format profile : [email protected]
Format settings, CABAC : Yes
Format settings, ReFrames : 3 frames
Codec ID : avc1
Codec ID/Info : Advanced Video Coding
Duration : 13mn 32s
Bit rate mode : Variable
Bit rate : 1 136 Kbps
Width : 848 pixels
Height : 480 pixels
Display aspect ratio : 16:9
Frame rate mode : Variable
Frame rate : 29.970 fps
Minimum frame rate : 15.773 fps
Maximum frame rate : 30.000 fps
Color space : YUV
Chroma subsampling : 4:2:0
Bit depth : 8 bits
Scan type : Progressive
Bits/(Pixel*Frame) : 0.093
Stream size : 110 MiB (93%)
Writing library : x264 core 65
Encoding settings : cabac=1 / ref=3 / deblock=1:0:0 / analyse=0x3:0x133 / me=umh / subme=9 / psy_rd=1.0:1.0 / mixed_ref=1 / me_range=16 / chroma_me=1 / trellis=1 / 8x8dct=1 / cqm=0 / deadzone=21,11 / chroma_qp_offset=-4 / threads=12 / nr=150 / decimate=1 / mbaff=0 / bframes=6 / b_pyramid=1 / b_adapt=1 / b_bias=0 / direct=3 / wpredb=1 / keyint=30 / keyint_min=16 / scenecut=40(pre) / rc=2pass / bitrate=1136 / ratetol=1.0 / qcomp=0.60 / qpmin=10 / qpmax=51 / qpstep=4 / cplxblur=20.0 / qblur=0.5 / ip_ratio=1.40 / pb_ratio=1.30 / aq=1:1.00
Language : English
Encoded date : UTC 2011-08-27 14:44:39
Tagged date : UTC 2011-08-27 16:17:09
Color primaries : BT.709-5, BT.1361, IEC 61966-2-4, SMPTE RP177
Transfer characteristics : BT.709-5, BT.1361
Matrix coefficients : BT.709-5, BT.1361, IEC 61966-2-4 709, SMPTE RP177
Audio
ID : 2
Format : AAC
Format/Info : Advanced Audio Codec
Format profile : LC
Codec ID : 40
Duration : 13mn 32s
Bit rate mode : Variable
Bit rate : 76.0 Kbps
Maximum bit rate : 98.5 Kbps
Channel(s) : 2 channels
Channel positions : Front: L R
Sampling rate : 22.05 KHz
Compression mode : Lossy
Stream size : 7.36 MiB (6%)
Encoded date : UTC 2011-08-27 14:44:39
Tagged date : UTC 2011-08-27 16:15:37
-
Скринлисты





 
   
Торрент:
Зарегистрирован [05 сен 2015, 01:59]
Скачать торрент Магнет ссылка
Скачать торрент
[ Размер 12.42 КБ / Просмотров 1 ]
Статус:
Проверен
 
.torrent скачан: 0 раз
Хэш: 256172dfff24a02400e066902891f925c0903497
Размер: 1.14 ГБ (1 226 812 891 байт)
 

Вернуться в Гонзо-фильмы / Gonzo

Кто сейчас на конференции

Сейчас эту тему просматривают: нет зарегистрированных пользователей и гости: 1


Ресурс не предоставляет электронные версии произведений, а занимается лишь коллекционированием и каталогизацией ссылок, присылаемых и публикуемых на форуме нашими читателями. Если вы являетесь правообладателем какого-либо представленного материала и не желаете чтобы ссылка на него находилась в нашем каталоге, свяжитесь с нами и мы незамедлительно удалим её. Файлы для обмена на трекере предоставлены пользователями сайта, и администрация не несёт ответственности за их содержание. Просьба не заливать файлы, защищенные авторскими правами, а также файлы нелегального содержания!
cron