Throat Yogurt 2 / По самые гланды №2 / Горловой Йогурт №2 (Jessica Dee, Platinum X Pictures) [2004 г., All Sex, Oral Sex, DVDRip] Angela Stone, Barbara Summer, Cole Conners, Victoria Spencer, Jada Fire, Jamie Brooks, Jasmin [rus](с русским переводом)

 Статистика раздачи 
Размер: 1.46 ГБ   |  Зарегистрирован: 05 сен 2015, 01:58   |   .torrent скачан: 1 раз
Сидеров: 3  [ 0 байт/сек ]     Личеров: 0  [ 0 байт/сек ]  
  
В сети
Аватара пользователя
Раздал: 130.41 ГБ
Скачал: 45.05 ГБ
Ратио: 2.895
Сообщения: 349589
Зарегистрирован: 27 июл 2015, 20:38

Throat Yogurt 2 / По самые гланды №2 / Горловой Йогурт №2 (Jessica Dee, Platinum X Pictures) [2004 г., All Sex, Oral Sex, DVDRip] Angela Stone, Barbara Summer, Cole Conners, Victoria Spencer, Jada Fire, Jamie Brooks, Jasmin [rus](с русским переводом)

Сообщение MalonE » 12 мар 2013, 15:10

#77
Оригинальное название: Throat Yogurt 2
Год выхода: 2004
Страна: США
Жанр: All Sex, Oral Sex
Продолжительность: 02:07:56
Режиссер: Джессика Ди (Jessica Dee)
Студия:
В ролях: Angela Stone, Anthony Hardwood, Arnold Schwarsenpecker, Barbara Summer, Brad Baldwin, Brandon Iron, Cole Conners, Diamond, Jada Fire, Jake Malone, Jamie Brooks, Jazmin, Joe Rock, Juan Cuba, Makayla Cox, Marcos Leon, Tee Reel, Tyla Wynn-Перевод: Любительский (одноголосый, SP Company)
Субтитры: нет-Описание: Check out Platinum X's flavored Yogurt! These creamy flavors are sure to please your appetite!-Описание SP Company: Не даёт покоя Джессике Ди слава Линды Лавлейс и её "Глубокой глотки". Вот и решилась Джессика отыскать девушку, любящую оральный секс и обожающую не только йогурт, но и сперму. В отборе принимали участие лучшие красавицы западного побережья. Кто победил - решать Вам. Смотрите очередной супер-кастинг, который предлагает своим зрителям "Платинум Пикчерз"и Джессика Ди.-Качество: DVDRip
Формат: AVI
Видео кодек: XviD
Видео: XviD 64, 720x544 (4:3), 25 fps, 1440 kbps avg, 0.147 bit/pixel
Аудио кодек: AC3
Звук: AC3 Dolby Digital, 48 kHz, 2/0 (L,R) ch, 192.00 kbps avg
Скринлист:
Скриншоты:


Actresses:









Тех.данные:
....Throat Yogurt 2.avi
General
Complete name : Throat Yogurt 2.avi
Format : AVI
Format/Info : Audio Video Interleave
File size : 1.46 GiB
Duration : 2h 7mn
Overall bit rate : 1 639 Kbps
Writing application : VirtualDubMod 1.5.4.1 (build 2178/release)
Writing library : VirtualDubMod build 2178/release
Video #0
ID : 0
Format : MPEG-4 Visual
Format profile : Advanced [email protected]
Format settings, BVOP : 1
Format settings, QPel : No
Format settings, GMC : No warppoints
Format settings, Matrix : Custom
Codec ID : XVID
Codec ID/Hint : XviD
Duration : 2h 7mn
Bit rate : 1 440 Kbps
Width : 720 pixels
Height : 544 pixels
Display aspect ratio : 4:3
Frame rate : 25.000 fps
Color space : YUV
Chroma subsampling : 4:2:0
Bit depth : 8 bits
Scan type : Progressive
Compression mode : Lossy
Bits/(Pixel*Frame) : 0.147
Stream size : 1.29 GiB (88%)
Writing library : XviD 64
Audio #1
ID : 1
Format : AC-3
Format/Info : Audio Coding 3
Mode extension : CM (complete main)
Codec ID : 2000
Duration : 2h 7mn
Bit rate mode : Constant
Bit rate : 192 Kbps
Channel(s) : 2 channels
Channel positions : Front: L R
Sampling rate : 48.0 KHz
Bit depth : 16 bits
Compression mode : Lossy
Stream size : 176 MiB (12%)
Alignment : Split accross interleaves
Interleave, duration : 96 ms (2.40 video frames)
Interleave, preload duration : 96 ms
Language : Russian
 
   
Торрент:
Зарегистрирован [05 сен 2015, 01:58]
Скачать торрент Магнет ссылка
Скачать торрент
[ Размер 15.14 КБ / Просмотров 4 ]
Статус:
Проверен
 
.torrent скачан: 1 раз
Хэш: cc48ca18c8305d49593c83a9f850e9ff4c366680
Размер: 1.46 ГБ (1 572 970 496 байт)
 

Вернуться в Гонзо-фильмы / Gonzo

Кто сейчас на конференции

Сейчас эту тему просматривают: нет зарегистрированных пользователей и гости: 1


Ресурс не предоставляет электронные версии произведений, а занимается лишь коллекционированием и каталогизацией ссылок, присылаемых и публикуемых на форуме нашими читателями. Если вы являетесь правообладателем какого-либо представленного материала и не желаете чтобы ссылка на него находилась в нашем каталоге, свяжитесь с нами и мы незамедлительно удалим её. Файлы для обмена на трекере предоставлены пользователями сайта, и администрация не несёт ответственности за их содержание. Просьба не заливать файлы, защищенные авторскими правами, а также файлы нелегального содержания!
cron